[ Сегодня идет свободное скачивание без начисления Download ]


Статистика раздачи
Нет
 
   
 
Top  
 
 
Как я был вундеркиндом
Жанр: Детский
Год выпуска: 1983
Продолжительность: 01:04:53, 01:03:19
Режиссёр: Евгений Марковский
В ролях: Арнас Катинас, Эрнст Романов, Вера Васильева, Николай Гринько, Геннадий Полока, Люда Ревзина, Гедрюс Пускунигис, Дмитрий Харатьян
Описание: По мотивам повести Владимира Машкова. Школьник Сева Соколов по прозвищу Вундеркинд посещает школу с углубленным изучением английского языка, занимается с репетиторами математикой и музыкой, а с индивидуальным тренером - плаванием. Сева старается везде успевать, но сильно устает, и из-за своей вечной "занятости" почти не видится с родителями. И однажды он решает "уйти из вундеркиндов" и немного пожить жизнью обыкновенного мальчишки. Но вскоре Сева узнает, что из-за его поступка у ни в чем не повинных репетиторов и тренера начались серьезные неприятности...
Семпл: http://multi-up.com/622016
Качество видео: DVB
Формат видео: MPEG
Видео: 704x576 (1,22:1), 25 fps, MPEG 2, ~3534 Kbps, 0,36 b/px
Аудио: 48 kHz, MPEG 1 Layer 2, 2 ch, ~112 Kbps

Скриншот c названием фильма

Скриншоты

Mediainfo

General
Complete name : C:\Users\User\Desktop\Раздачи\Как я был вундеркиндом\Как я был вундеркиндом - 1 серия.mpg
Format : MPEG-PS
File size : 1.75 GiB
Duration : 1h 4mn
Overall bit rate : 3 850 Kbps
Writing library : encoded by TMPGEnc MPEG Editor 2.0 Version. 2.2.8.177
Video
ID : 224 (0xE0)
Format : MPEG Video
Format version : Version 2
Format profile : [email protected]
Format settings, BVOP : Yes
Format settings, Matrix : Default
Duration : 1h 4mn
Bit rate mode : Variable
Bit rate : 3 619 Kbps
Width : 704 pixels
Height : 576 pixels
Display aspect ratio : 4:3
Frame rate : 25.000 fps
Standard : PAL
Color space : YUV
Chroma subsampling : 4:2:0
Bit depth : 8 bits
Scan type : Interlaced
Scan order : Top Field First
Compression mode : Lossy
Bits/(Pixel*Frame) : 0.357
Stream size : 1.62 GiB (93%)
Writing library : TMPGEnc MPEG Editor 2.2.8.177
Audio
ID : 192 (0xC0)
Format : MPEG Audio
Format version : Version 1
Format profile : Layer 2
Duration : 1h 4mn
Bit rate mode : Constant
Bit rate : 192 Kbps
Channel(s) : 2 channels
Sampling rate : 48.0 KHz
Compression mode : Lossy
Stream size : 89.1 MiB (5%)
General
Complete name : C:\Users\User\Desktop\Раздачи\Как я был вундеркиндом\Как я был вундеркиндом - 2 серия.mpg
Format : MPEG-PS
File size : 1.70 GiB
Duration : 1h 3mn
Overall bit rate : 3 849 Kbps
Writing library : encoded by TMPGEnc MPEG Editor 2.0 Version. 2.2.8.177
Video
ID : 224 (0xE0)
Format : MPEG Video
Format version : Version 2
Format profile : [email protected]
Format settings, BVOP : Yes
Format settings, Matrix : Default
Duration : 1h 3mn
Bit rate mode : Variable
Bit rate : 3 619 Kbps
Width : 704 pixels
Height : 576 pixels
Display aspect ratio : 4:3
Frame rate : 25.000 fps
Standard : PAL
Color space : YUV
Chroma subsampling : 4:2:0
Bit depth : 8 bits
Scan type : Interlaced
Scan order : Top Field First
Compression mode : Lossy
Bits/(Pixel*Frame) : 0.357
Stream size : 1.58 GiB (93%)
Writing library : TMPGEnc MPEG Editor 2.2.8.177
Audio
ID : 192 (0xC0)
Format : MPEG Audio
Format version : Version 1
Format profile : Layer 2
Duration : 1h 3mn
Bit rate mode : Constant
Bit rate : 192 Kbps
Channel(s) : 2 channels
Sampling rate : 48.0 KHz
Compression mode : Lossy
Stream size : 87.0 MiB (5%)

[Цитировать]



Показать сообщения:    

Текущее время: 04-Дек 11:17

Часовой пояс: UTC + 3


Вы не можете начинать темы
Вы не можете отвечать на сообщения
Вы не можете редактировать свои сообщения
Вы не можете удалять свои сообщения
Вы не можете голосовать в опросах
Вы не можете прикреплять файлы к сообщениям
Вы не можете скачивать файлы

!ВНИМАНИЕ!
Сайт не предоставляет электронные версии произведений, а занимается лишь коллекционированием и каталогизацией ссылок, присылаемых и публикуемых на форуме нашими читателями. Если вы являетесь правообладателем какого-либо представленного материала и не желаете, чтобы ссылка на него находилась в нашем каталоге, свяжитесь с нами, и мы незамедлительно удалим ее. Файлы для обмена на трекере предоставлены пользователями сайта, и администрация не несет ответственности за их содержание. Просьба не заливать файлы, защищенные авторскими правами, а также файлы нелегального содержания!