[ Сегодня идет свободное скачивание без начисления Download ]


Статистика раздачи
Нет
 
   
 
Top  
 
 
Удивительная находка, или Самые обыкновенные чудеса
Жанр: детский
Год выпуска: 1986
Продолжительность: 01:06:05
Режиссёр: Марк Толмачев
В ролях: Ярослав Есиновский, Филипп Салимоненко, Настя Бурлакова, Александр Делибаш, Антон Артеменко, Маша Ковтун, Юрий Звягинцев, Марина Станькова, Виталий Дорошенко, Мария Виноградова, Нина Русланова, Ирина (Ирен) Азер
Описание: Фильм снят по мотивам повести Владислава Крапивина «Болтик».
Мама и бабушка, чрезмерно опекая девятилетнего Максима, совсем не замечают, что мальчик растет трусливым и нерешительным. Но однажды Максим Рыбкин находит болтик, который, как ему приснилось, должен обладать волшебной силой — помогать совершению задуманного. Рыбкин становится смелым — он храбро бросается тушить пожар у соседей, выигрывает велосипедную гонку и, окончательно поверив в свои силы, забывает об удивительной находке.
Доп. информация:
Сценарист: Лариса Евгеньева
Оператор: Альберт Осипов
Композитор: Геннадий Банщиков
Художник: Муза Панаева
Производство: Одесская киностудия
Премьера: сентябрь 1986

КИНО-ТЕАТР.ru
TeleCine
DVDRip в AVI
Качество видео: TVRip
Формат видео: MPEG2
Видео: MPEG2 Video 720x576 (4:3) 25.00fps 4035 Кбит/сек
Аудио: MPEG Audio 48000Hz stereo192kbps

MediaInfo

Общее
Полное имя : D:\TORENT4\NAKhODKA.1986.mpg
Формат : MPEG-PS
Размер файла : 2,08 Гбайт
Продолжительность : 1 ч. 6 м.
Общий поток : 4508 Кбит/сек
Видео
Идентификатор : 224 (0xE0)
Формат : MPEG Video
Версия формата : Version 2
Профиль формата : Main@Main
Параметр BVOP формата : Да
Параметр матрицы формата : По умолчанию
Продолжительность : 1 ч. 6 м.
Вид битрейта : Переменный
Битрейт : 4035 Кбит/сек
Номинальный битрейт : 9282 Кбит/сек
Ширина : 720 пикс.
Высота : 576 пикс.
Соотношение сторон : 4:3
Частота кадров : 25,000 кадр/сек
Стандарт вещания : PAL
Цветовое пространство : YUV
Подвыборка цветности : 4:2:0
Битовая глубина : 8 бит
Тип развёртки : Чересстрочная
Порядок развёртки : Верхнее поле первое
Метод сжатия : С потерями
Бит/(Пиксели*Кадры) : 0.389
Размер потока : 1,86 Гбайт (89%)
Аудио
Идентификатор : 189 (0xBD)-128 (0x80)
Формат : AC-3
Формат/Информация : Audio Coding 3
Расширение режима : CM (complete main)
Режим смешивания : DVD-Video
Продолжительность : 1 ч. 6 м.
Вид битрейта : Постоянный
Битрейт : 384 Кбит/сек
Каналы : 2 канала
Расположение каналов : Front: L R
Частота : 48,0 КГц
Битовая глубина : 16 бит
Метод сжатия : С потерями
Размер потока : 182 Мбайт (9%)

Скриншоты

[Цитировать]



Показать сообщения:    

Текущее время: 08-Дек 23:13

Часовой пояс: UTC + 3


Вы не можете начинать темы
Вы не можете отвечать на сообщения
Вы не можете редактировать свои сообщения
Вы не можете удалять свои сообщения
Вы не можете голосовать в опросах
Вы не можете прикреплять файлы к сообщениям
Вы не можете скачивать файлы

!ВНИМАНИЕ!
Сайт не предоставляет электронные версии произведений, а занимается лишь коллекционированием и каталогизацией ссылок, присылаемых и публикуемых на форуме нашими читателями. Если вы являетесь правообладателем какого-либо представленного материала и не желаете, чтобы ссылка на него находилась в нашем каталоге, свяжитесь с нами, и мы незамедлительно удалим ее. Файлы для обмена на трекере предоставлены пользователями сайта, и администрация не несет ответственности за их содержание. Просьба не заливать файлы, защищенные авторскими правами, а также файлы нелегального содержания!