[ Сегодня идет свободное скачивание без начисления Download ]


Статистика раздачи
Нет
 
   
 
Top  
 
 
Стрекозиные крылья
Жанр: лирическая новелла, короткометражный
Год выпуска: 1968
Продолжительность: 00:22:26
Режиссёр: Кузьма Кресницкий
В ролях: Оля Рябцева, Гена Лосев
Описание: Лирическая новелла о первой детской любви пятикласника Пеки к однокласснице Аллочке Никольской — фигуристке-маленьком лебеде из балета Чайковского со стрекозиными крыльями, и о первых разочарованиях.
Доп. информация:
Сценарист: Юрий Яковлев (II)
Оператор: Олег Авдеев
Композитор: Евгений Глебов
Художник: Юрий Альбицкий
Производство: Беларусьфильм

КИНО-ТЕАТР.ru
SATRip в AVI
Качество видео: TVRip
Формат видео: : DVD Video
Видео: MPEG2 Video 720x576 (4:3) 25.00fps ~ 9143.94 Кбит/сек
Аудио: MPEG Audio 48000Hz stereo192kbps

MediaInfo

Общее
Полное имя : D:\TORENT4\STREKOZINIhE.KRIhLJYa.1968\VIDEO_TS\VIDEO_TS.BUP
Формат : DVD Video
Профиль формата : Menu
Размер файла : 32,0 Кбайт
Видео
Идентификатор : 224 (0xE0)
Формат : MPEG Video
Версия формата : Version 2
Вид битрейта : Переменный
Ширина : 720 пикс.
Высота : 576 пикс.
Соотношение сторон : 4:3
Частота кадров : 25,000 кадр/сек
Стандарт вещания : PAL
Метод сжатия : С потерями
Аудио
Формат : MPEG Audio
Профиль формата : Version 1
Каналы : 2 канала
Частота : 48,0 КГц
Метод сжатия : С потерями
Общее
Полное имя : D:\TORENT4\STREKOZINIhE.KRIhLJYa.1968\VIDEO_TS\VIDEO_TS.IFO
Формат : DVD Video
Профиль формата : Menu
Размер файла : 32,0 Кбайт
Видео
Идентификатор : 224 (0xE0)
Формат : MPEG Video
Версия формата : Version 2
Вид битрейта : Переменный
Ширина : 720 пикс.
Высота : 576 пикс.
Соотношение сторон : 4:3
Частота кадров : 25,000 кадр/сек
Стандарт вещания : PAL
Метод сжатия : С потерями
Аудио
Формат : MPEG Audio
Профиль формата : Version 1
Каналы : 2 канала
Частота : 48,0 КГц
Метод сжатия : С потерями
Общее
Полное имя : D:\TORENT4\STREKOZINIhE.KRIhLJYa.1968\VIDEO_TS\VTS_01_0.BUP
Формат : DVD Video
Профиль формата : Program
Размер файла : 26,0 Кбайт
Продолжительность : 22 м.
Общий поток : 158 бит/сек
Видео
Идентификатор : 224 (0xE0)
Формат : MPEG Video
Версия формата : Version 2
Продолжительность : 22 м.
Вид битрейта : Переменный
Ширина : 720 пикс.
Высота : 576 пикс.
Соотношение сторон : 4:3
Частота кадров : 25,000 кадр/сек
Стандарт вещания : PAL
Метод сжатия : С потерями
Аудио
Идентификатор : 0 (0x0)
Формат : MPEG Audio
Профиль формата : Version 1
Продолжительность : 22 м.
Каналы : 2 канала
Частота : 48,0 КГц
Метод сжатия : С потерями
Язык : English
Меню
Продолжительность : 22 м.
00:00:00.000 : Chapter 1
00:10:44.680 : Chapter 2
List (Audio) : 0
Общее
Полное имя : D:\TORENT4\STREKOZINIhE.KRIhLJYa.1968\VIDEO_TS\VTS_01_0.IFO
Формат : DVD Video
Профиль формата : Program
Размер файла : 26,0 Кбайт
Продолжительность : 22 м.
Общий поток : 158 бит/сек
Видео
Идентификатор : 224 (0xE0)
Формат : MPEG Video
Версия формата : Version 2
Продолжительность : 22 м.
Вид битрейта : Переменный
Ширина : 720 пикс.
Высота : 576 пикс.
Соотношение сторон : 4:3
Частота кадров : 25,000 кадр/сек
Стандарт вещания : PAL
Метод сжатия : С потерями
Аудио
Идентификатор : 0 (0x0)
Формат : MPEG Audio
Профиль формата : Version 1
Продолжительность : 22 м.
Каналы : 2 канала
Частота : 48,0 КГц
Метод сжатия : С потерями
Язык : English
Меню
Продолжительность : 22 м.
00:00:00.000 : Chapter 1
00:10:44.680 : Chapter 2
List (Audio) : 0
Общее
Полное имя : D:\TORENT4\STREKOZINIhE.KRIhLJYa.1968\VIDEO_TS\VTS_01_1.VOB
Формат : MPEG-PS
Размер файла : 1024 Мбайт
Продолжительность : 15 м.
Общий поток : 9051 Кбит/сек
Видео
Идентификатор : 224 (0xE0)
Формат : MPEG Video
Версия формата : Version 2
Профиль формата : Main@Main
Параметр BVOP формата : Да
Параметр матрицы формата : По умолчанию
Продолжительность : 15 м.
Вид битрейта : Переменный
Битрейт : 8679 Кбит/сек
Номинальный битрейт : 9282 Кбит/сек
Ширина : 720 пикс.
Высота : 576 пикс.
Соотношение сторон : 4:3
Частота кадров : 25,000 кадр/сек
Стандарт вещания : PAL
Цветовое пространство : YUV
Подвыборка цветности : 4:2:0
Битовая глубина : 8 бит
Тип развёртки : Чересстрочная
Порядок развёртки : Верхнее поле первое
Метод сжатия : С потерями
Бит/(Пиксели*Кадры) : 0.837
Размер потока : 982 Мбайт (96%)
Аудио
Идентификатор : 192 (0xC0)
Формат : MPEG Audio
Версия формата : Version 1
Профиль формата : Layer 2
Продолжительность : 15 м.
Вид битрейта : Постоянный
Битрейт : 192 Кбит/сек
Каналы : 2 канала
Частота : 48,0 КГц
Метод сжатия : С потерями
Размер потока : 21,7 Мбайт (2%)
Меню
Общее
Полное имя : D:\TORENT4\STREKOZINIhE.KRIhLJYa.1968\VIDEO_TS\VTS_01_2.VOB
Формат : MPEG-PS
Размер файла : 443 Мбайт
Продолжительность : 6 м. 37 с.
Общий поток : 9362 Кбит/сек
Видео
Идентификатор : 224 (0xE0)
Формат : MPEG Video
Версия формата : Version 2
Профиль формата : Main@Main
Параметр BVOP формата : Да
Параметр матрицы формата : По умолчанию
Параметры GOP формата : M=3, N=12
Продолжительность : 6 м. 36 с.
Вид битрейта : Переменный
Битрейт : 9282 Кбит/сек
Ширина : 720 пикс.
Высота : 576 пикс.
Соотношение сторон : 4:3
Частота кадров : 25,000 кадр/сек
Стандарт вещания : PAL
Цветовое пространство : YUV
Подвыборка цветности : 4:2:0
Битовая глубина : 8 бит
Тип развёртки : Чересстрочная
Порядок развёртки : Верхнее поле первое
Метод сжатия : С потерями
Бит/(Пиксели*Кадры) : 0.895
Размер потока : 425 Мбайт (96%)
Аудио
Идентификатор : 192 (0xC0)
Формат : MPEG Audio
Версия формата : Version 1
Профиль формата : Layer 2
Продолжительность : 6 м. 37 с.
Вид битрейта : Постоянный
Битрейт : 192 Кбит/сек
Каналы : 2 канала
Частота : 48,0 КГц
Метод сжатия : С потерями
Задержка видео : -136 мс.
Размер потока : 9,09 Мбайт (2%)

DVDInfo

Title: STREKOZINIhE.KRIhLJYa.1968
Size: 1.43 Gb ( 1 502 476,00 KBytes ) - DVD-5
Enabled regions: 1, 2, 3, 4, 5, 6, 7, 8
VTS_01 :
Play Length: 00:22:26
Video: PAL 4:3 (720x576) VBR
Audio:
English, MPA, Delay = 0 mSec
* Menus Information *
VIDEO_TS Menu
Video:
PAL 4:3 (720x576) VBR
Audio:
Not specified (MPEG1, 2 ch)
Language Unit :
VTS_01 Menu
Video:
NTSC 4:3 (720x480) VBR
Auto Pan&Scan, Auto Letterboxed
Language Unit :
Chapter (PTT) Menu

Скриншоты

[Цитировать]



Показать сообщения:    

Текущее время: 24-Мар 18:12

Часовой пояс: UTC + 6


Вы не можете начинать темы
Вы не можете отвечать на сообщения
Вы не можете редактировать свои сообщения
Вы не можете удалять свои сообщения
Вы не можете голосовать в опросах
Вы не можете прикреплять файлы к сообщениям
Вы не можете скачивать файлы

!ВНИМАНИЕ!
Сайт не предоставляет электронные версии произведений, а занимается лишь коллекционированием и каталогизацией ссылок, присылаемых и публикуемых на форуме нашими читателями. Если вы являетесь правообладателем какого-либо представленного материала и не желаете, чтобы ссылка на него находилась в нашем каталоге, свяжитесь с нами, и мы незамедлительно удалим ее. Файлы для обмена на трекере предоставлены пользователями сайта, и администрация не несет ответственности за их содержание. Просьба не заливать файлы, защищенные авторскими правами, а также файлы нелегального содержания!