[ Сегодня идет свободное скачивание без начисления Download ]


Статистика раздачи
Нет
 
   
 
Top  
 
 
Мальчишки
Жанр: киноальманах
Год выпуска: 1969
Продолжительность: 01:22:25
"Новенький" (Аян Шахмалиева)
В ролях: Майя Булгакова, Андрей Константинов, Александр Подошвин, Татьяна Доронина, Александр Кавалеров, Михаил Кононов
Описание: Боря и его мать возвращаются из Уфы, где были в эвакуации, в родной Ленинград. Боря пытается подружиться с главным в дворовой компании Толей Волковым, который в это самое время в первый раз влюбился...
"Это именно я" (Леонид Макарычев)
В ролях: Виктор Жуков, Лариса Тараненко, Геннадий Дюдяев, Владимир Донцов, Антонина Павлычева, Георгий Штиль, Владимир Рецептер, М.Ладыгин, Олег и Игорь Глазковы
Описание: Новый физрук обнаруживает у круглого отличника Саши Горохова неплохие данные и надеется воспитать из него боксёра. Но это совсем не интересует самого Сашу...
Доп. информация: Запись потока *.ts со спутника EUTELSAT, микширование в *.mpg программой VideoReDo.
Качество видео: DVB
Формат видео: MPEG-TS
Видео: MPEG Video, 544x576 (4:3), 25,000 кадров/сек, 2322 Кбит/сек
Аудио: MPEG Audio, 48,0 КГц, 192 Кбит/сек, 2 канала

MediaInfo

Общее
Полное имя : E:\Torrent\Мальчишки\МАЛЬЧИШКИ.mpg
Формат : MPEG-PS
Размер файла : 1,49 Гбайт
Продолжительность : 1 ч. 22 м.
Режим общего битрейта : Переменный
Общий поток : 2565 Кбит/сек
Видео
Идентификатор : 224 (0xE0)
Формат : MPEG Video
Версия формата : Version 2
Профиль формата : [email protected]
Параметр BVOP формата : Да
Параметр матрицы формата : Выборочная
Параметр GOP формата : M=3, N=24
Продолжительность : 1 ч. 22 м.
Вид битрейта : Переменный
Битрейт : 2322 Кбит/сек
Максимальный битрейт : 5000 Кбит/сек
Ширина : 544 пикселя
Высота : 576 пикселей
Соотношение сторон : 4:3
Частота кадров : 25,000 кадров/сек
Цветовое пространство : YUV
Субдискретизация насыщенности : 4:2:0
Битовая глубина : 8 бит
Тип развёртки : Чересстрочная
Порядок развёртки : Верхнее поле первое
Метод сжатия : С потерями
Бит/(Пиксели*Кадры) : 0.296
Размер потока : 1,35 Гбайт (91%)
Аудио
Идентификатор : 192 (0xC0)
Формат : MPEG Audio
Версия формата : Version 1
Профиль формата : Layer 2
Продолжительность : 1 ч. 22 м.
Вид битрейта : Постоянный
Битрейт : 192 Кбит/сек
Каналы : 2 канала
Частота : 48,0 КГц
Метод сжатия : С потерями
Размер потока : 114 Мбайт (7%)

Скриншоты

[Цитировать]



Показать сообщения:    

Текущее время: 06-Дек 03:57

Часовой пояс: UTC + 3


Вы не можете начинать темы
Вы не можете отвечать на сообщения
Вы не можете редактировать свои сообщения
Вы не можете удалять свои сообщения
Вы не можете голосовать в опросах
Вы не можете прикреплять файлы к сообщениям
Вы не можете скачивать файлы

!ВНИМАНИЕ!
Сайт не предоставляет электронные версии произведений, а занимается лишь коллекционированием и каталогизацией ссылок, присылаемых и публикуемых на форуме нашими читателями. Если вы являетесь правообладателем какого-либо представленного материала и не желаете, чтобы ссылка на него находилась в нашем каталоге, свяжитесь с нами, и мы незамедлительно удалим ее. Файлы для обмена на трекере предоставлены пользователями сайта, и администрация не несет ответственности за их содержание. Просьба не заливать файлы, защищенные авторскими правами, а также файлы нелегального содержания!