[ Сегодня идет свободное скачивание без начисления Download ]


Статистика раздачи
Нет
 
   
 
Top  
 
 
Самый сильный
Жанр: Сказка
Год выпуска: 1973
Продолжительность: 01:18:48
Режиссёр: Олег Николаевский
В ролях: Николай Мерзликин, Татьяна Клюева, Владимир Довейко, Евгений Весник, Капитолина Ламочкина, Павел Федосеев, Ирина Кмит, Юрий Мельницкий, Сергей Николаев, Е. Поликанин, Аркадий Пышняк, Константин Максимов, Александр Ильин, Даниил Нетребин, Валентина Савельева, Г. Билль, Е. Бугров, Владимир Дубровский
Описание: В небывалом Царстве, в невиданном Государстве жили-были старик со старухой. Долго прожили, а детей не нажили. Однажды слепил дед из теста куколку, положил на печь, а из куклы вдруг ребенок родился, да не простой! Рос не по дням, а по часам, пил и ел за семерых! Вымахал в здоровенного, очень сильного и очень дерзкого парня. Одно огорчало стариков - не было у их сына сердца, из теста сделан все-таки. Как-то встретил богатырь соседскую девушку-красавицу, из озорства полюбезничал с ней, а она уж подумала: влюбился, мол. Да и сама полюбила богатыря. Не знала красавица тогда еще, что нет у парня сердца... А тому скучно стало дома сидеть со стариками, и отправился он, как говорится, мир поглядеть, да себя показать...
Исходник:
Качество видео: DVDRip
Формат видео: AVI
Видео: 688x512 (1.34:1), XviD 1.2.1, 25 fps, 2290kbps, 0.26 bit/pixel
Аудио: Dolby AC3 48000Hz stereo 192kbps

MediaInfo

General
Complete name : C:\Users\samsung\Videos\Samyj_Silnyj DVDRip 1973.avi
Format : AVI
Format/Info : Audio Video Interleave
File size : 1.37 GiB
Duration : 1h 18mn
Overall bit rate : 2 491 Kbps
Writing application : VirtualDubMod 1.5.10.2 (build 2540/release)
Writing library : VirtualDubMod build 2540/release
Video
ID : 0
Format : MPEG-4 Visual
Format profile : Advanced Simple@L5
Format settings, BVOP : Yes
Format settings, QPel : No
Format settings, GMC : No warppoints
Format settings, Matrix : Default (H.263)
Codec ID : XVID
Codec ID/Hint : XviD
Duration : 1h 18mn
Bit rate : 2 290 Kbps
Width : 688 pixels
Height : 512 pixels
Display aspect ratio : 4:3
Frame rate : 25.000 fps
Color space : YUV
Chroma subsampling : 4:2:0
Bit depth : 8 bits
Scan type : Progressive
Bits/(Pixel*Frame) : 0.260
Stream size : 1.26 GiB (92%)
Writing library : XviD 1.2.1 (UTC 2008-12-04)
Audio
ID : 1
Format : AC-3
Format/Info : Audio Coding 3
Mode extension : CM (complete main)
Codec ID : 2000
Duration : 1h 18mn
Bit rate mode : Constant
Bit rate : 192 Kbps
Channel(s) : 2 channels
Channel positions : Front: L R
Sampling rate : 48.0 KHz
Bit depth : 16 bits
Stream size : 108 MiB (8%)
Alignment : Aligned on interleaves
Interleave, duration : 40 ms (1.00 video frame)
Interleave, preload duration : 512 ms

[Цитировать]



Показать сообщения:    

Текущее время: 08-Дек 09:06

Часовой пояс: UTC + 3


Вы не можете начинать темы
Вы не можете отвечать на сообщения
Вы не можете редактировать свои сообщения
Вы не можете удалять свои сообщения
Вы не можете голосовать в опросах
Вы не можете прикреплять файлы к сообщениям
Вы не можете скачивать файлы

!ВНИМАНИЕ!
Сайт не предоставляет электронные версии произведений, а занимается лишь коллекционированием и каталогизацией ссылок, присылаемых и публикуемых на форуме нашими читателями. Если вы являетесь правообладателем какого-либо представленного материала и не желаете, чтобы ссылка на него находилась в нашем каталоге, свяжитесь с нами, и мы незамедлительно удалим ее. Файлы для обмена на трекере предоставлены пользователями сайта, и администрация не несет ответственности за их содержание. Просьба не заливать файлы, защищенные авторскими правами, а также файлы нелегального содержания!