[ Сегодня идет свободное скачивание без начисления Download ]


Статистика раздачи
Нет
 
   
 
Top  
 
 
Мальчики
Жанр: детский фильм
Год выпуска: 1959
Продолжительность: 01:09:59
Производство: киностудия им. А.Довженко
Режиссёр: Суламифь Цибульник
В ролях: Лёня Бабич, Николай Чурсин, Саша Карпов, Лидия Сухаревская, Александр Гумбург, Николай Дупак, Гертруда Двойникова, Валентин Грудинин, Елена Машкара, Наташа Черноусова, Анатолий Зайцев
Описание: Киевские школьники Петя, Игорь и Тимка учатся в одном классе и живут в одном доме. Игорь и Петя – неразлучные друзья. Тимка более замкнут, чем его сверстники. После смерти отца – героя-лётчика, он живёт с мачехой, женщиной нечуткой и ограниченной. То, что жизнь Тимки сложилась не по-детски трудно, сделало его непримиримым ко всякому проявлению избалованности. Особенно достаётся от него Пете, не всегда умеющему постоять за себя и не отличающемуся ловкостью. Однажды в жизнь ребят врывается событие, после которого дружба Пети и Игоря подвергается серьёзному испытанию...
Семпл: http://multi-up.com/764222
Релиз
Рип: bankolya
Качество видео: VHSRip
Формат видео: AVI
Видео: 704x544 (1.29:1), 25 fps, XviD build 46, 1215 kbps avg
Аудио: 48 kHz, MPEG Layer 3, 2 ch, 128.00 kbps

Сравнение

http://screenshotcomparison.com/comparison/146778
У конкурента - перешарпленная пережатка этого рипа, взятая с Кинозала. Автор пережатки сам признаётся в этом в обсуждении раздачи конкурента

MediaInfo

Формат : AVI
Формат/Информация : Audio Video Interleave
Размер файла : 677 Мбайт
Продолжительность : 1 ч. 9 м.
Общий поток : 1353 Кбит/сек
Программа кодирования : VirtualDubMod 1.5.10.2 (build 2540/release)
Библиотека кодирования : VirtualDubMod build 2540/release
Видео
Идентификатор : 0
Формат : MPEG-4 Visual
Профиль формата : Advanced [email protected]
Параметр BVOP формата : 2
Параметр QPel формата : Нет
Параметр GMC формата : Без точки перехода
Параметр матрицы формата : Default (H.263)
Идентификатор кодека : XVID
Идентификатор кодека/Подсказка : XviD
Продолжительность : 1 ч. 9 м.
Битрейт : 1215 Кбит/сек
Ширина : 704 пикселя
Высота : 544 пикселя
Соотношение сторон : 1,294
Частота кадров : 25,000 кадров/сек
Цветовое пространство : YUV
Субдискретизация насыщенности : 4:2:0
Битовая глубина : 8 бит
Тип развёртки : Прогрессивная
Метод сжатия : С потерями
Бит/(Пиксели*Кадры) : 0.127
Размер потока : 608 Мбайт (90%)
Библиотека кодирования : XviD 1.1.2 (UTC 2006-11-01)
Аудио
Идентификатор : 1
Формат : MPEG Audio
Версия формата : Version 1
Профиль формата : Layer 3
Режим : Joint stereo
Расширение режима : MS Stereo
Идентификатор кодека : 55
Идентификатор кодека/Подсказка : MP3
Продолжительность : 1 ч. 9 м.
Вид битрейта : Постоянный
Битрейт : 128 Кбит/сек
Каналы : 2 канала
Частота : 48,0 КГц
Метод сжатия : С потерями
Размер потока : 64,1 Мбайт (9%)
Выравнивание : Соединение по промежуткам
Продолжительность промежутка : 40 мс. (1,00 видеокадр)
Время предзагрузки промежутка : 504 мс.

Украинский советский киноплакат

[Цитировать]



Показать сообщения:    

Текущее время: 06-Дек 19:09

Часовой пояс: UTC + 3


Вы не можете начинать темы
Вы не можете отвечать на сообщения
Вы не можете редактировать свои сообщения
Вы не можете удалять свои сообщения
Вы не можете голосовать в опросах
Вы не можете прикреплять файлы к сообщениям
Вы не можете скачивать файлы

!ВНИМАНИЕ!
Сайт не предоставляет электронные версии произведений, а занимается лишь коллекционированием и каталогизацией ссылок, присылаемых и публикуемых на форуме нашими читателями. Если вы являетесь правообладателем какого-либо представленного материала и не желаете, чтобы ссылка на него находилась в нашем каталоге, свяжитесь с нами, и мы незамедлительно удалим ее. Файлы для обмена на трекере предоставлены пользователями сайта, и администрация не несет ответственности за их содержание. Просьба не заливать файлы, защищенные авторскими правами, а также файлы нелегального содержания!