[ Сегодня идет свободное скачивание без начисления Download ]


Статистика раздачи
Нет
 
   
 
Top  
 
 
Сказка. Есть-- Жанр: приключения, сказка
Год выпуска: 2012
Продолжительность: 01:31:35--Режиссеры: Елизавета Соломина, Константин Статский, Александр Баршак
В ролях: Константин Хабенский (большой энциклопедический словарь), Гоша Куценко (учитель пения и физкультуры Пенькультурник), Ксения Раппопорт (завуч Гала Дмитриевна), Михаил Пореченков (плюшевый мишка), Алексей Серебряков (папа), Михаил Козаков (директор школы Станислав Далиевич Сальвадоров), Андрей Смоляков (злой Клоун), Артур Смольянинов (цирковой кролик), Ирина Пегова (мама-балерина), Дарья Мороз (кукла Барби), Михаил Трухин (Ай-Под), Григорий Сиятвинда (фокусник-конферансье)
Описание: Хотели бы вы очутиться в настоящей игрушечной стране, где плюшевый мишка, букварь и МР3-плеер могут стать вашими друзьями и помогут выбраться из очень опасного приключения? Или побывать ночью в цирке, на необычном представлении, где вы оказались, "следуя за белым кроликом", как героиня другой известной сказки? Или попасть в школу, где вместо уроков вас ждут "страшные приключения" и сказочные монстры? Именно такие истории пришлось пережить героям фильма - самым обычным детям XXI века.--Доп. информация:

: --Качество видео: HDRip
Формат видео: AVI
Видео: 720x304 (2.37:1), 24 fps, XviD build 50 ~1686 kbps avg, 0.32 bit/pixel
Аудио: 48 kHz, AC3 Dolby Digital, 3/2 (L,C,R,l,r) + LFE ch, ~448.00 kbps avg

MediaInfo

Complete name                            : Skazka.est.2012.O.HDRip.IRONCLUB.avi
Format                                   : AVI
Format/Info                              : Audio Video Interleave
File size                                : 1.37 GiB
Duration                                 : 1h 31mn
Overall bit rate                         : 2 144 Kbps
Movie name                               : Skazka.est.2012.O.HDRip.IRONCLUB
Writing application                      : VirtualDubModRus 1.5.10.2 (build 2542/release)
Original source form/Name                : Movie
Video
ID                                       : 0
Format                                   : MPEG-4 Visual
Format profile                           : Advanced [email protected]
Format settings, BVOP                    : 2
Format settings, QPel                    : No
Format settings, GMC                     : No warppoints
Format settings, Matrix                  : Custom
Codec ID                                 : XVID
Codec ID/Hint                            : XviD
Duration                                 : 1h 31mn
Bit rate                                 : 1 686 Kbps
Width                                    : 720 pixels
Height                                   : 304 pixels
Display aspect ratio                     : 2.35:1
Frame rate                               : 24.000 fps
Color space                              : YUV
Chroma subsampling                       : 4:2:0
Bit depth                                : 8 bits
Scan type                                : Progressive
Compression mode                         : Lossy
Bits/(Pixel*Frame)                       : 0.321
Stream size                              : 1.08 GiB (79%)
Writing library                          : XviD 1.2.1 (UTC 2008-12-04)
Audio
ID                                       : 1
Format                                   : AC-3
Format/Info                              : Audio Coding 3
Mode extension                           : CM (complete main)
Codec ID                                 : 2000
Duration                                 : 1h 31mn
Bit rate mode                            : Constant
Bit rate                                 : 448 Kbps
Channel(s)                               : 6 channels
Channel positions                        : Front: L C R, Side: L R, LFE
Sampling rate                            : 48.0 KHz
Bit depth                                : 16 bits
Compression mode                         : Lossy
Stream size                              : 293 MiB (21%)
Alignment                                : Split accross interleaves
Interleave, duration                     : 42 ms (1.00 video frame)
Interleave, preload duration             : 500 ms

Скриншоты


Сравнение HDRip vs DVDRip

Сравнение с ЗДЕСЬ

[Цитировать]



Показать сообщения:    

Текущее время: 04-Дек 15:21

Часовой пояс: UTC + 3


Вы не можете начинать темы
Вы не можете отвечать на сообщения
Вы не можете редактировать свои сообщения
Вы не можете удалять свои сообщения
Вы не можете голосовать в опросах
Вы не можете прикреплять файлы к сообщениям
Вы не можете скачивать файлы

!ВНИМАНИЕ!
Сайт не предоставляет электронные версии произведений, а занимается лишь коллекционированием и каталогизацией ссылок, присылаемых и публикуемых на форуме нашими читателями. Если вы являетесь правообладателем какого-либо представленного материала и не желаете, чтобы ссылка на него находилась в нашем каталоге, свяжитесь с нами, и мы незамедлительно удалим ее. Файлы для обмена на трекере предоставлены пользователями сайта, и администрация не несет ответственности за их содержание. Просьба не заливать файлы, защищенные авторскими правами, а также файлы нелегального содержания!