[ Сегодня идет свободное скачивание без начисления Download ]


Статистика раздачи
Нет
 
   
 
Top  
 
 
Ретивый поросенок
Жанр: комедия
Год выпуска: 1979
Продолжительность: 00:45:08
Режиссёр: Резо Чархалашвили
В ролях: Сесилия Такаишвили, Зураб Капианидзе, Лия (Лиана) Гудадзе, Ева Хутунашвили, Григол Талаквадзе, Зураб Лаперадзе, Кахи Кавсадзе, Баадур Цуладзе, Абессалом Лория, Гиви Тохадзе, Лео Сохашвили, Зозо Бакрадзе, Натела Палиашвили, Иван (Вано) Нинуа, Гия Перадзе, Амиран Буадзе, Тамара Схиртладзе, Иосиф Хаиндрава, Василий Иванидзе, Георгий Жужунашвили, Владимир Читишвили
Описание: Кинокомедия об озорном поросенке и его добрых, веселых хозяевах. Своими проделками поросенок прославился на всё село. Намаявшись с ним хозяева, Марта и её сын Кукури, повезли проказника в Тбилиси на базар...
Доп. информация: Коллега продолжает радовать нас своими замечательными записями.
Качество видео: DVB
Формат видео: MPEG-PS
Видео: MPEG2 Video, 720x576 (4:3), 25,000 кадров/сек, 2062 Кбит/сек
Аудио: MPEG Audio, 48,0 КГц, 192 Кбит/сек, 2 канала

MediaInfo

Общее
Полное имя : D:\Torrent\Ретивый поросёнок\Ретивый поросёнок (Дом кино).mpg
Формат : MPEG-PS
Размер файла : 742 Мбайт
Продолжительность : 45 м.
Режим общего битрейта : Переменный
Общий поток : 2299 Кбит/сек
Видео
Идентификатор : 224 (0xE0)
Формат : MPEG Video
Версия формата : Version 2
Профиль формата : Main@Main
Параметр BVOP формата : Нет
Параметр матрицы формата : Выборочная
Параметр GOP формата : M=1, N=31
Продолжительность : 45 м.
Вид битрейта : Переменный
Битрейт : 2062 Кбит/сек
Максимальный битрейт : 15,0 Мбит/сек
Ширина : 720 пикселей
Высота : 576 пикселей
Соотношение сторон : 4:3
Частота кадров : 25,000 кадров/сек
Стандарт вещания : PAL
Цветовое пространство : YUV
Субдискретизация насыщенности : 4:2:0
Битовая глубина : 8 бит
Тип развёртки : Чересстрочная
Порядок развёртки : Верхнее поле первое
Метод сжатия : С потерями
Бит/(Пиксели*Кадры) : 0.199
Размер потока : 666 Мбайт (90%)
Аудио
Идентификатор : 192 (0xC0)
Формат : MPEG Audio
Версия формата : Version 1
Профиль формата : Layer 2
Продолжительность : 45 м.
Вид битрейта : Постоянный
Битрейт : 192 Кбит/сек
Каналы : 2 канала
Частота : 48,0 КГц
Метод сжатия : С потерями
Размер потока : 62,0 Мбайт (8%)

Скриншоты

[Цитировать]



Показать сообщения:    

Текущее время: 07-Дек 23:19

Часовой пояс: UTC + 3


Вы не можете начинать темы
Вы не можете отвечать на сообщения
Вы не можете редактировать свои сообщения
Вы не можете удалять свои сообщения
Вы не можете голосовать в опросах
Вы не можете прикреплять файлы к сообщениям
Вы не можете скачивать файлы

!ВНИМАНИЕ!
Сайт не предоставляет электронные версии произведений, а занимается лишь коллекционированием и каталогизацией ссылок, присылаемых и публикуемых на форуме нашими читателями. Если вы являетесь правообладателем какого-либо представленного материала и не желаете, чтобы ссылка на него находилась в нашем каталоге, свяжитесь с нами, и мы незамедлительно удалим ее. Файлы для обмена на трекере предоставлены пользователями сайта, и администрация не несет ответственности за их содержание. Просьба не заливать файлы, защищенные авторскими правами, а также файлы нелегального содержания!