[ Сегодня идет свободное скачивание без начисления Download ]


Статистика раздачи
Нет
 
   
 
Top  
 
 
Автомобиль, скрипка и собака Клякса
Жанр: комедия, музыкальный
Год выпуска: 1974
Продолжительность: 01:35:47
Режиссёр: Ролан Быков
В ролях: Олег Анофриев, Ролан Быков, Георгий Вицин, Зиновий Гердт, Николай Гринько, Михаил Козаков, Алексей Смирнов, Спартак Мишулин, Саша Чернявский, Наталья Тенищева, Андрей Гусев, Цолак Вартазарян, Зоя Фёдорова, Галина Польских, Марина Полбенцева, Александр Жеромский, Виктор Фокин, Владимир Герасимов, Вадим Власов
Описание: Широкоформатный фильм. В самую красивую девочку двора влюблены двое друзей-пятиклассников. Один из них - "технарь", мастер на все руки, другой - музыкант, скрипач. Ветреная красавица демонстрирует свою благосклонность то одному, то другому. А ее маленький братик Кузя хочет всего-навсего много кошек, чтобы сделать из них обезьяну, потому что из обезьяны легко сделать медведя, потому что из медведя уже совсем просто сделать товарища...
Доп. информация: Коллега продолжает радовать нас своими замечательными записями трансляций ТК "Культура".
Качество видео: DVB
Формат видео: MPEG-PS
Видео: MPEG2 Video, 720x576 (4:3), 25,000 кадров/сек, 5323 Кбит/сек
Аудио: MPEG Audio, 48,0 КГц, 256 Кбит/сек, 2 канала

MediaInfo

Общее
Полное имя : E:\Torrent\Автомобиль скрипка и собака Клякса\Автомобиль скрипка и собака Клякса (Россия К).mpg
Формат : MPEG-PS
Размер файла : 3,81 Гбайт
Продолжительность : 1 ч. 35 м.
Режим общего битрейта : Переменный
Общий поток : 5693 Кбит/сек
Видео
Идентификатор : 224 (0xE0)
Формат : MPEG Video
Версия формата : Version 2
Профиль формата : Main@Main
Параметр BVOP формата : Да
Параметр матрицы формата : Выборочная
Параметр GOP формата : M=3, N=15
Продолжительность : 1 ч. 35 м.
Вид битрейта : Переменный
Битрейт : 5323 Кбит/сек
Максимальный битрейт : 15,0 Мбит/сек
Ширина : 720 пикселей
Высота : 576 пикселей
Соотношение сторон : 4:3
Частота кадров : 25,000 кадров/сек
Стандарт вещания : PAL
Цветовое пространство : YUV
Субдискретизация насыщенности : 4:2:0
Битовая глубина : 8 бит
Тип развёртки : Чересстрочная
Порядок развёртки : Верхнее поле первое
Метод сжатия : С потерями
Бит/(Пиксели*Кадры) : 0.513
Размер потока : 3,56 Гбайт (94%)
Аудио
Идентификатор : 192 (0xC0)
Формат : MPEG Audio
Версия формата : Version 1
Профиль формата : Layer 2
Продолжительность : 1 ч. 35 м.
Вид битрейта : Постоянный
Битрейт : 256 Кбит/сек
Каналы : 2 канала
Частота : 48,0 КГц
Метод сжатия : С потерями
Размер потока : 175 Мбайт (4%)

Скриншоты

[Цитировать]



Показать сообщения:    

Текущее время: 07-Дек 11:41

Часовой пояс: UTC + 3


Вы не можете начинать темы
Вы не можете отвечать на сообщения
Вы не можете редактировать свои сообщения
Вы не можете удалять свои сообщения
Вы не можете голосовать в опросах
Вы не можете прикреплять файлы к сообщениям
Вы не можете скачивать файлы

!ВНИМАНИЕ!
Сайт не предоставляет электронные версии произведений, а занимается лишь коллекционированием и каталогизацией ссылок, присылаемых и публикуемых на форуме нашими читателями. Если вы являетесь правообладателем какого-либо представленного материала и не желаете, чтобы ссылка на него находилась в нашем каталоге, свяжитесь с нами, и мы незамедлительно удалим ее. Файлы для обмена на трекере предоставлены пользователями сайта, и администрация не несет ответственности за их содержание. Просьба не заливать файлы, защищенные авторскими правами, а также файлы нелегального содержания!