[ Сегодня идет свободное скачивание без начисления Download ]


Статистика раздачи
Нет
 
   
 
Top  
 
 
Время счастливых находок
Жанр: киноповесть, экранизация
Год выпуска: 1969
Продолжительность: 01:11:07
Режиссёр: Генрих Габай
В ролях: Жора Таркил, Софья Агумава, Георгий Гегечкори, Евгения Рубановская, Борис Ципурия, Владимир Татосов, Олег Авидзба, Михаил Бадзагуа, Руслан Басария, Тимур Дзидзигури, Борис Пиастро, Зураб Сангулия, Павел Фанидис, Азиз Агрба, Тамара Болквадзе, Екатерина Верулашвили, Рита Гладунко, Нурбей Камкиа, Нелли Лакоба, Сергей Мартинсон, Флора Шедания, Адольф Шестаков, Фазиль Искандер, Валентин Брылеев, Вадим Захарченко, Юрий Киреев, Давид Кобулов, Сесика Купрашвили
Описание: 12-летний Сандрик живет в Сухуми. У него уникальный дар - отыскивать потерянные вещи. Особенно это пригодилось ему во время каникул, которые он проводил в абхазской деревне.
Доп. информация: Запись потока *.ts со спутника EUTELSAT, ремукс в *.mpg программой VideoReDo.
Качество видео: DVB
Формат видео: MPEG-PS
Видео: MPEG2 Video, 720x576 (4:3), 25,000 кадров/сек, 3516 Кбит/сек
Аудио: MPEG Audio, 48,0 КГц, 192 Кбит/сек, 2 канала

MediaInfo

Общее
Полное имя : J:\Torrent\ВРЕМЯ СЧАСТЛИВЫХ НАХОДОК\ВРЕМЯ СЧАСТЛИВЫХ НАХОДОК (Дом Кино).mpg
Формат : MPEG-PS
Размер файла : 1,88 Гбайт
Продолжительность : 1 ч. 11 м.
Режим общего битрейта : Переменный
Общий поток : 3783 Кбит/сек
Видео
Идентификатор : 224 (0xE0)
Формат : MPEG Video
Версия формата : Version 2
Профиль формата : Main@Main
Параметр BVOP формата : Да
Параметр матрицы формата : Выборочная
Параметр GOP формата : M=3, N=12
Продолжительность : 1 ч. 11 м.
Вид битрейта : Переменный
Битрейт : 3516 Кбит/сек
Максимальный битрейт : 5000 Кбит/сек
Ширина : 720 пикселей
Высота : 576 пикселей
Соотношение сторон : 4:3
Частота кадров : 25,000 кадров/сек
Стандарт вещания : PAL
Цветовое пространство : YUV
Субдискретизация насыщенности : 4:2:0
Битовая глубина : 8 бит
Тип развёртки : Чересстрочная
Порядок развёртки : Верхнее поле первое
Метод сжатия : С потерями
Бит/(Пиксели*Кадры) : 0.339
TimeCode_FirstFrame : 00:00:00:00
TimeCode_Source : Group of pictures header
Размер потока : 1,75 Гбайт (93%)
Аудио
Идентификатор : 192 (0xC0)
Формат : MPEG Audio
Версия формата : Version 1
Профиль формата : Layer 2
Продолжительность : 1 ч. 11 м.
Вид битрейта : Постоянный
Битрейт : 192 Кбит/сек
Каналы : 2 канала
Частота : 48,0 КГц
Метод сжатия : С потерями
Размер потока : 97,7 Мбайт (5%)

Скриншоты

[Цитировать]



Показать сообщения:    

Текущее время: 02-Дек 22:56

Часовой пояс: UTC + 3


Вы не можете начинать темы
Вы не можете отвечать на сообщения
Вы не можете редактировать свои сообщения
Вы не можете удалять свои сообщения
Вы не можете голосовать в опросах
Вы не можете прикреплять файлы к сообщениям
Вы не можете скачивать файлы

!ВНИМАНИЕ!
Сайт не предоставляет электронные версии произведений, а занимается лишь коллекционированием и каталогизацией ссылок, присылаемых и публикуемых на форуме нашими читателями. Если вы являетесь правообладателем какого-либо представленного материала и не желаете, чтобы ссылка на него находилась в нашем каталоге, свяжитесь с нами, и мы незамедлительно удалим ее. Файлы для обмена на трекере предоставлены пользователями сайта, и администрация не несет ответственности за их содержание. Просьба не заливать файлы, защищенные авторскими правами, а также файлы нелегального содержания!