[ Сегодня идет свободное скачивание без начисления Download ]


Статистика раздачи
Скачал: [ 1 ]
 
   
 
Top  
 
 
Двенадцать месяцев (2 серии)- Год выпуска: 1972
Жанр: Сказка, семейный
Продолжительность: 01:03:15 + 01:15:31-Режиссер: Анатолий Граник
В ролях: Николай Волков, Марина Мальцева, Татьяна Пельтцер, Лев Лемке, Константин Адашевский, Владимир Костин, Сергей Дворецкий, Константин Григорьев, Леонид Куравлёв, Ольга Викланд и др.-Описание: Сказка по пьесе С. Маршака. Однажды холодным зимним вечером — вечером, когда добрая хозяйка собаку из дома не выгонит, злая мачеха отправила свою падчерицу в лес, чтобы та набрала корзину подснежников. Бедной девочке ничего не оставалось делать, как отправиться исполнять прихоть мачехи…- -Качество видео: DVDRip
Исходник:
Формат видео: AVI
Видео#1: 640x464 (1.38:1), 25 fps, XviD build 73 ~1443 kbps avg, 0.19 bit/pixel
Видео#2: 640x464 (1.38:1), 25 fps, XviD build 73 ~1180 kbps avg, 0.16 bit/pixel
Аудио: 48 kHz, AC3 Dolby Digital, 2/0 (L,R) ch, ~192.00 kbps
Размер: 744 MB + 747 MB = ? DVD

MediaInfo

[color=black]General
Complete name                            : C:\Dvenadtsat' Mesyatsev_DVD5\VIDEO_TS\12_mesyatsev.1972.DVDRip.[R.G.Torrents.ru].part01.avi
Format                                   : AVI
Format/Info                              : Audio Video Interleave
File size                                : 744 MiB
Duration                                 : 1h 3mn
Overall bit rate                         : 1 645 Kbps
Movie name                               : 12 Месяцев [Серия: 1/2] (1972) - DVDRip by Juvelir
Writing application                      : VirtualDubMod 1.5.10.3 | www.virtualdub-fr.org || (build 2550/release)
Video
ID                                       : 0
Format                                   : MPEG-4 Visual
Format profile                           : Advanced Simple@L5
Format settings, BVOP                    : 2
Format settings, QPel                    : No
Format settings, GMC                     : No warppoints
Format settings, Matrix                  : Custom
Codec ID                                 : XVID
Codec ID/Hint                            : XviD
Duration                                 : 1h 3mn
Bit rate                                 : 1 443 Kbps
Width                                    : 640 pixels
Height                                   : 464 pixels
Display aspect ratio                     : 1.379
Frame rate                               : 25.000 fps
Color space                              : YUV
Chroma subsampling                       : 4:2:0
Bit depth                                : 8 bits
Scan type                                : Progressive
Compression mode                         : Lossy
Bits/(Pixel*Frame)                       : 0.194
Stream size                              : 653 MiB (88%)
Writing library                          : XviD 73
Audio
ID                                       : 1
Format                                   : AC-3
Format/Info                              : Audio Coding 3
Mode extension                           : CM (complete main)
Format settings, Endianness              : Big
Codec ID                                 : 2000
Duration                                 : 1h 3mn
Bit rate mode                            : Constant
Bit rate                                 : 192 Kbps
Channel(s)                               : 2 channels
Channel positions                        : Front: L R
Sampling rate                            : 48.0 KHz
Bit depth                                : 16 bits
Compression mode                         : Lossy
Stream size                              : 86.9 MiB (12%)
Alignment                                : Split accross interleaves
Interleave, duration                     : 40 ms (1.00 video frame)
Interleave, preload duration             : 500 ms[/color]
[color=DarkGreen]General
Complete name                            : C:\Dvenadtsat' Mesyatsev_DVD5\VIDEO_TS\12_mesyatsev.1972.DVDRip.[R.G.Torrents.ru].part02.avi
Format                                   : AVI
Format/Info                              : Audio Video Interleave
File size                                : 747 MiB
Duration                                 : 1h 15mn
Overall bit rate                         : 1 382 Kbps
Movie name                               : 12 Месяцев [Серия: 2/2] (1972) - DVDRip by Juvelir
Writing application                      : VirtualDubMod 1.5.10.3 | www.virtualdub-fr.org || (build 2550/release)
Video
ID                                       : 0
Format                                   : MPEG-4 Visual
Format profile                           : Advanced Simple@L5
Format settings, BVOP                    : 2
Format settings, QPel                    : No
Format settings, GMC                     : No warppoints
Format settings, Matrix                  : Custom
Codec ID                                 : XVID
Codec ID/Hint                            : XviD
Duration                                 : 1h 15mn
Bit rate                                 : 1 180 Kbps
Width                                    : 640 pixels
Height                                   : 464 pixels
Display aspect ratio                     : 1.379
Frame rate                               : 25.000 fps
Color space                              : YUV
Chroma subsampling                       : 4:2:0
Bit depth                                : 8 bits
Scan type                                : Progressive
Compression mode                         : Lossy
Bits/(Pixel*Frame)                       : 0.159
Stream size                              : 638 MiB (85%)
Writing library                          : XviD 73
Audio
ID                                       : 1
Format                                   : AC-3
Format/Info                              : Audio Coding 3
Mode extension                           : CM (complete main)
Format settings, Endianness              : Big
Codec ID                                 : 2000
Duration                                 : 1h 15mn
Bit rate mode                            : Constant
Bit rate                                 : 192 Kbps
Channel(s)                               : 2 channels
Channel positions                        : Front: L R
Sampling rate                            : 48.0 KHz
Bit depth                                : 16 bits
Compression mode                         : Lossy
Stream size                              : 104 MiB (14%)
Alignment                                : Split accross interleaves
Interleave, duration                     : 40 ms (1.00 video frame)
Interleave, preload duration             : 500 ms[/color]

Скриншоты



Сравнения

http://screenshotcomparison.com/comparison/37790
+ у конкурента:
Muxing mode : Packed bitstream

[Цитировать]



Показать сообщения:    

Текущее время: 08-Дек 10:59

Часовой пояс: UTC + 3


Вы не можете начинать темы
Вы не можете отвечать на сообщения
Вы не можете редактировать свои сообщения
Вы не можете удалять свои сообщения
Вы не можете голосовать в опросах
Вы не можете прикреплять файлы к сообщениям
Вы не можете скачивать файлы

!ВНИМАНИЕ!
Сайт не предоставляет электронные версии произведений, а занимается лишь коллекционированием и каталогизацией ссылок, присылаемых и публикуемых на форуме нашими читателями. Если вы являетесь правообладателем какого-либо представленного материала и не желаете, чтобы ссылка на него находилась в нашем каталоге, свяжитесь с нами, и мы незамедлительно удалим ее. Файлы для обмена на трекере предоставлены пользователями сайта, и администрация не несет ответственности за их содержание. Просьба не заливать файлы, защищенные авторскими правами, а также файлы нелегального содержания!