[ Сегодня идет свободное скачивание без начисления Download ]


Статистика раздачи
Нет
 
   
 
Top  
 
 
Дом с привидениями
Жанр: драма
Год выпуска: 1987
Продолжительность: 01:24:24
-
Режиссёр: Ефим Гальперин
В ролях: Катя Цуканова, Вика Гаврилова, Ярослав Лисоволик, Сергей Домнин, Ваня Кузнецов, Егор Каптелин, Сандрик Гарибашвили, Рома Мигунов, Володя Первой, Сережа Панарин, Маша Лепина, Света Румянцева, Лена Смирнова, Маша Волова, Олег Байков, Александр Подвальный, Сергей Межевов, Марина Голуб
-
Описание: Этот день начался для подростка Марика на редкость плохо. У него украли любимую собаку и потребовали выкуп. В тот же день приходит во второй класс новая ученица, Оля Николаева, которая не угодила никому — ни учителям, ни, тем более, уже давно разбившемуся на мелкие группировки классу. Ибо человек с развитым чувством собственного достоинства — зачастую не очень удобный человек. А ребёнок, ценящий себя как личность, — ребёнок совершенно неудобный. Понимая, что новенькая не такая, как они, местная «королева» всячески унижает её и предлагает пройти испытание — провести час в «доме с привидениями»...
-

-
Качество видео: TVRip Спасибо Kot8489
Формат видео: AVI
Видео: 704x384 (1.83:1), 25 fps, XviD build 73 ~2272 kbps avg, 0.34 bit/pixel
Аудио: 48 kHz, AC3 Dolby Digital, 2/0 (L,R) ch, ~192 kbps

MediaInfo

General
Complete name : D:\Релизы\Дом с привидениями.1987.TVRip.XviD.AC3.avi
Format : AVI
Format/Info : Audio Video Interleave
File size : 1.46 GiB
Duration : 1h 24mn
Overall bit rate : 2 474 Kbps
Writing application : VirtualDubMod 1.5.10.2 (build 2540/release)
Writing library : VirtualDubMod build 2540/release
Video
ID : 0
Format : MPEG-4 Visual
Format profile : Advanced Simple@L5
Format settings, BVOP : 1
Format settings, QPel : No
Format settings, GMC : No warppoints
Format settings, Matrix : Custom
Codec ID : XVID
Codec ID/Hint : XviD
Duration : 1h 24mn
Bit rate : 2 272 Kbps
Width : 704 pixels
Height : 384 pixels
Display aspect ratio : 1.85:1
Frame rate : 25.000 fps
Color space : YUV
Chroma subsampling : 4:2:0
Bit depth : 8 bits
Scan type : Progressive
Compression mode : Lossy
Bits/(Pixel*Frame) : 0.336
Stream size : 1.34 GiB (92%)
Writing library : XviD 73
Audio
ID : 1
Format : AC-3
Format/Info : Audio Coding 3
Mode extension : CM (complete main)
Format settings, Endianness : Big
Codec ID : 2000
Duration : 1h 24mn
Bit rate mode : Constant
Bit rate : 192 Kbps
Channel(s) : 2 channels
Channel positions : Front: L R
Sampling rate : 48.0 KHz
Bit depth : 16 bits
Compression mode : Lossy
Stream size : 116 MiB (8%)
Alignment : Split accross interleaves
Interleave, duration : 40 ms (1.00 video frame)
Interleave, preload duration : 500 ms

Скриншоты

[Цитировать]



Показать сообщения:    

Текущее время: 10-Дек 23:27

Часовой пояс: UTC + 3


Вы не можете начинать темы
Вы не можете отвечать на сообщения
Вы не можете редактировать свои сообщения
Вы не можете удалять свои сообщения
Вы не можете голосовать в опросах
Вы не можете прикреплять файлы к сообщениям
Вы не можете скачивать файлы

!ВНИМАНИЕ!
Сайт не предоставляет электронные версии произведений, а занимается лишь коллекционированием и каталогизацией ссылок, присылаемых и публикуемых на форуме нашими читателями. Если вы являетесь правообладателем какого-либо представленного материала и не желаете, чтобы ссылка на него находилась в нашем каталоге, свяжитесь с нами, и мы незамедлительно удалим ее. Файлы для обмена на трекере предоставлены пользователями сайта, и администрация не несет ответственности за их содержание. Просьба не заливать файлы, защищенные авторскими правами, а также файлы нелегального содержания!