[ Сегодня идет свободное скачивание без начисления Download ]


Статистика раздачи
Нет
 
   
 
Top  
 
 
Старая, старая сказка-Год выпуска: 1968
Страна: СССР, Ленфильм
Жанр: Фильм-сказка
Продолжительность: 1:31:30
Режиссёр: Надежда Кошеверова
Авторы сценария: Юлий Дунский, Валерий Фрид
Композитор: Андрей Петров
В ролях: Олег Даль (Сказочник; Солдат), Марина Неёлова (Дочь трактирщика; Принцесса), Владимир Этуш (Трактирщик; Король), Георгий Вицин (Добрый волшебник), Вера Титова (ведьма ? Чёртова бабушка), Виктор Перевалов (Принц-трубочист), Игорь Дмитриев (Восточный принц), Георгий Штиль (телохранитель), Георгий Георгиу (Толстый), Лев Лемке (Тонкий), Анатолий Королькевич (швейцар), Борис Лёскин (кучер).
Описание: Настоящая сказка: добрая, красивая, немного грустная... По мотивам знаменитых сказок Ганса Христиана Андерсена «Огниво», «Свинопас», «Дурень Ганс».
Бедный кукольник даёт представление в трактире, чтобы оплатить кружку пива и обед. Утром он собирается бежать вместе с дочерью трактирщика. Ночью куклы оживают и просят своего кукловода не бросать их. Но кукольник хочет завести семью и приобрести нормальную профессию. Тогда куклы дают ему представление и разыгрывают сказку...-Награды: Диплом на МКФ в Венеции, Италия (1968).
- -Качество: DVDRip
Формат: AVI
Видео: 672x288 (2.33:1), 25 fps, XviD build 65 ~1000 kbps avg, 0.21 bit/pixel
Аудио: 48 kHz, MPEG Layer 3, 2 ch, ~128.00 kbps

Mediainfo

GeneralComplete name                            : Staraja.staraja.skazka.1968_745_Olu6ka.aviFormat                                   : AVIFormat/Info                              : Audio Video InterleaveFile size                                : 745 MiBDuration                                 : 1h 31mnOverall bit rate                         : 1 138 KbpsWriting application                      : VirtualDubMod 1.5.10.3Writing library                          : VirtualDubMod build 2550/release
VideoID : 0Format : MPEG-4 VisualFormat profile : Advanced Simple@L5Format settings, BVOP : 1Format settings, QPel : NoFormat settings, GMC : No warppointsFormat settings, Matrix : CustomCodec ID : XVIDCodec ID/Hint : XviDDuration : 1h 31mnBit rate : 1 000 KbpsWidth : 672 pixelsHeight : 288 pixelsDisplay aspect ratio : 2.35:1Frame rate : 25.000 fpsColor space : YUVChroma subsampling : 4:2:0Bit depth : 8 bitsScan type : ProgressiveCompression mode : LossyBits/(Pixel*Frame) : 0.207Stream size : 655 MiB (88%)Writing library : XviD 65
AudioID : 1Format : MPEG AudioFormat version : Version 1Format profile : Layer 3Codec ID : 55Codec ID/Hint : MP3Duration : 1h 31mnBit rate mode : ConstantBit rate : 128 KbpsChannel(s) : 2 channelsSampling rate : 48.0 KHzCompression mode : LossyStream size : 83.8 MiB (11%)Alignment : Aligned on interleavesInterleave, duration : 40 ms (1.00 video frame)Interleave, preload duration : 504 msWriting library : LAME3.99rEncoding settings : -m s -V 4 -q 2 -lowpass 17 -b 128
Большое спасибо tolich2006 за предоставленный исходник! группы

[Цитировать]



Показать сообщения:    

Текущее время: 07-Дек 13:36

Часовой пояс: UTC + 3


Вы не можете начинать темы
Вы не можете отвечать на сообщения
Вы не можете редактировать свои сообщения
Вы не можете удалять свои сообщения
Вы не можете голосовать в опросах
Вы не можете прикреплять файлы к сообщениям
Вы не можете скачивать файлы

!ВНИМАНИЕ!
Сайт не предоставляет электронные версии произведений, а занимается лишь коллекционированием и каталогизацией ссылок, присылаемых и публикуемых на форуме нашими читателями. Если вы являетесь правообладателем какого-либо представленного материала и не желаете, чтобы ссылка на него находилась в нашем каталоге, свяжитесь с нами, и мы незамедлительно удалим ее. Файлы для обмена на трекере предоставлены пользователями сайта, и администрация не несет ответственности за их содержание. Просьба не заливать файлы, защищенные авторскими правами, а также файлы нелегального содержания!