[ Сегодня идет свободное скачивание без начисления Download ]


Статистика раздачи
Нет
 
   
 
Top  
 
 
Путь дракона / Meng long guo jiang / The Way of the Dragon Название: Путь дракона
Оригинальное название: Meng long guo jiang / The Way of the Dragon
Год выхода: 1972
Страна: Гонконг
Выпущено: Concord Productions Inc., Golden Harvest Company
Жанр: Боевик, триллер, драма, комедия, криминал--Продолжительность: 01:38:40
Перевод 1: Профессиональный (Многоголосый закадровый "Superbit")
Перевод 2: Авторский (Одноголосый закадровый "В.Королёв")
Режиссер: Брюс Ли
В ролях: Брюс Ли, Нора Миао, Чак Норрис, Вэй Пинао, Роберт Уолл, Ван Инсик, Тони Лю, Юникорн Чан, Мализа Лонго, Чун Синь Хуан, Фу Чинг Чен, Чин Ти, Роберт Чен, Джон Т. Бенн, Роберт Бейкер, Риккардо Билли, Расселл Коуторн, Франц Коланджели, Джон Дербишир, Александр Гранд, Джим Джеймс, Чинг-Йинг Лам, Джузеппе Марокку, Андре Э. Морган, Андерс Нельсон, Юэнь Бяо--О фильме: Тан приезжает из Гонконга в Рим, чтобы помочь друзьям семьи, чей ресторан задумали отобрать местные мафиози. Привыкшие всегда получать то, что захотят и не останавливаться ни перед чем, бандиты совершили большую ошибку, недооценив с виду скромного молодого человека. Не сумев справиться с ним своими силами, мафиози нанимают лучших европейских и японских мастеров боевых искусств, но Тан с легкостью побеждает всех. И тогда против него на арену древнего Колизея выходит «крутой и смертоносный» американец Колт.-- --Файл
Кодек: x264
Формат: MKV
Качество: BDRip 1080p
Видео: AVC (High@L4.1) 1920x816 (2.35:1), 23.976 fps, 9978 kbps, 0.266 Bits/Pixel
Аудио1 1: DD (AC-3) 5.1 ch, 640 kbps
Аудио 2: DD (AC-3) 5.1 ch, 640 kbps
Субтитры: Русские, Английские--

MI

General
Unique ID : 183560675047027513877273423297547411397 (0x8A1880047D3F7B24B62ED7373ED51FC5)
Format : Matroska
Format version : Version 2
File size : 7.76 GiB
Duration : 1h 38mn
Overall bit rate : 11.3 Mbps
Movie name : Путь дракона (1972) BDRip (1080p)
Encoded date : UTC 2013-01-27 00:11:02
Writing application : mkvmerge v5.8.0 ('No Sleep / Pillow') built on Sep 2 2012 15:37:04
Writing library : libebml v1.2.3 + libmatroska v1.3.0
Attachment : Yes / Yes
Video
ID : 1
Format : AVC
Format/Info : Advanced Video Codec
Format profile : High@L4.1
Format settings, CABAC : Yes
Format settings, ReFrames : 5 frames
Codec ID : V_MPEG4/ISO/AVC
Duration : 1h 38mn
Bit rate : 9 978 Kbps
Width : 1 920 pixels
Height : 816 pixels
Display aspect ratio : 2.35:1
Frame rate mode : Constant
Frame rate : 23.976 fps
Color space : YUV
Chroma subsampling : 4:2:0
Bit depth : 8 bits
Scan type : Progressive
Bits/(Pixel*Frame) : 0.266
Stream size : 6.72 GiB (87%)
Title : Release by Alex260680
Writing library : x264 core 129 r2245 bc13772
Encoding settings : cabac=1 / ref=5 / deblock=1:-1:-1 / analyse=0x3:0x113 / me=umh / subme=11 / psy=1 / psy_rd=1.00:0.10 / mixed_ref=1 / me_range=32 / chroma_me=1 / trellis=2 / 8x8dct=1 / cqm=0 / deadzone=21,11 / fast_pskip=0 / chroma_qp_offset=-3 / threads=12 / lookahead_threads=2 / sliced_threads=0 / nr=0 / decimate=0 / interlaced=0 / bluray_compat=0 / constrained_intra=0 / bframes=5 / b_pyramid=2 / b_adapt=2 / b_bias=0 / direct=3 / weightb=1 / open_gop=0 / weightp=2 / keyint=240 / keyint_min=23 / scenecut=40 / intra_refresh=0 / rc=2pass / mbtree=0 / bitrate=9978 / ratetol=1.0 / qcomp=0.60 / qpmin=0 / qpmax=69 / qpstep=4 / cplxblur=20.0 / qblur=0.5 / ip_ratio=1.40 / pb_ratio=1.30 / aq=1:0.90
Language : Chinese
Default : Yes
Forced : No
Audio #1
ID : 2
Format : AC-3
Format/Info : Audio Coding 3
Mode extension : CM (complete main)
Format settings, Endianness : Big
Codec ID : A_AC3
Duration : 1h 38mn
Bit rate mode : Constant
Bit rate : 640 Kbps
Channel(s) : 6 channels
Channel positions : Front: L C R, Side: L R, LFE
Sampling rate : 48.0 KHz
Bit depth : 16 bits
Compression mode : Lossy
Stream size : 452 MiB (6%)
Title : MVO (Superbit)
Language : Russian
Default : Yes
Forced : No
Audio #2
ID : 3
Format : AC-3
Format/Info : Audio Coding 3
Mode extension : CM (complete main)
Format settings, Endianness : Big
Codec ID : A_AC3
Duration : 1h 38mn
Bit rate mode : Constant
Bit rate : 640 Kbps
Channel(s) : 6 channels
Channel positions : Front: L C R, Side: L R, LFE
Sampling rate : 48.0 KHz
Bit depth : 16 bits
Compression mode : Lossy
Stream size : 452 MiB (6%)
Title : AVO (Королёв)
Language : Russian
Default : No
Forced : No
Text #1
ID : 4
Format : UTF-8
Codec ID : S_TEXT/UTF8
Codec ID/Info : UTF-8 Plain Text
Language : Russian
Default : No
Forced : No
Text #2
ID : 5
Format : UTF-8
Codec ID : S_TEXT/UTF8
Codec ID/Info : UTF-8 Plain Text
Language : English
Default : No
Forced : No
Menu
00:00:00.000 : en:Chapter1
00:02:10.921 : en:Chapter2
00:12:11.605 : en:Chapter3
00:17:37.056 : en:Chapter4
00:20:49.455 : en:Chapter5
00:28:57.359 : en:Chapter6
00:35:07.313 : en:Chapter7
00:40:19.250 : en:Chapter8
00:42:13.322 : en:Chapter9
00:43:59.302 : en:Chapter10
00:45:22.385 : en:Chapter11
00:47:07.199 : en:Chapter12
00:55:39.918 : en:Chapter13
01:02:06.304 : en:Chapter14
01:08:17.426 : en:Chapter15
01:11:37.667 : en:Chapter16
01:14:07.317 : en:Chapter17
01:21:06.485 : en:Chapter18
01:34:34.918 : en:Chapter19
01:36:15.728 : en:Chapter20
01:38:40.747 : en:Chapter21

Скриншоты

[Цитировать]



Показать сообщения:    

Текущее время: 11-Дек 13:01

Часовой пояс: UTC + 3


Вы не можете начинать темы
Вы не можете отвечать на сообщения
Вы не можете редактировать свои сообщения
Вы не можете удалять свои сообщения
Вы не можете голосовать в опросах
Вы не можете прикреплять файлы к сообщениям
Вы не можете скачивать файлы

!ВНИМАНИЕ!
Сайт не предоставляет электронные версии произведений, а занимается лишь коллекционированием и каталогизацией ссылок, присылаемых и публикуемых на форуме нашими читателями. Если вы являетесь правообладателем какого-либо представленного материала и не желаете, чтобы ссылка на него находилась в нашем каталоге, свяжитесь с нами, и мы незамедлительно удалим ее. Файлы для обмена на трекере предоставлены пользователями сайта, и администрация не несет ответственности за их содержание. Просьба не заливать файлы, защищенные авторскими правами, а также файлы нелегального содержания!