[ Сегодня идет свободное скачивание без начисления Download ]


Статистика раздачи
Скачал: [ 1 ]
 
   
 
Top  
 
 
Молодая Гвардия
(Полная оригинальная версия)

Жанр: Драма, военный
Год выпуска: 1948
Продолжительность: 2 серии (01:33:04 + 01:18:13)

Режиссёр: Сергей Герасимов
В ролях: Владимир Иванов, Инна Макарова, Сергей Гурзо, Борис Битюков, Нонна Мордюкова, Сергей Бондарчук, Глеб Романов, Людмила Шагалова, Вячеслав Тихонов, Караман Мгеладзе, Анатолий Чемодуров, Георгий Юматов, Евгений Моргунов, Клара Лучко, Людмила Иванова, Муза Крепкогорская, Тамара Носова, Виктор Авдюшко, Георгий Шаповалов, Юрий Егоров, Виктор Хохряков, Евгений Тетерин, Андрей Файт, Тамара Макарова, Александра Панова, Аза Калашникова, Мария Яроцкая, Лев Фенин, Александра Денисова, Владимир Уральский, Зинаида Воркуль, Александра Харитонова, Сергей Комаров, Григорий Шпигель, Василий Бокарев, Алексей Розанов
Описание:
Фильм снят по одноимённому роману Александра Фадеева. Июль 1942 года. Великая Отечественная война. Части Советской Армии оставили шахтёрский город Краснодон. После этого город оккупировали фашистские войска. Вражеская техника перерезала дорогу людям, и группа комсомольцев была вынуждена вернуться домой. В ответ на злодеяния немецко-фашистских захватчиков молодые комсомольцы, бывшие школьники создают подпольную организацию под названием «Молодая гвардия». Эта организация ведёт против немецко-фашистских войск скрытую войну: молодые ребята распространяют листовки, освобождают группу пленных красноармейцев, сжигают немецкую биржу, тем самым спасая своих соотечественников от фашистского рабства. В день годовщины Красного Октября молодогвардейцы развешивают советские красные флаги. Но не все остаются в живых…

Доп. информация:
Это оригинальная версия фильма, 1948 года выпуска. В отличии от укороченной и редактированной версии 1964 года, изданной недавно на DVD с редактированием фрагментов и переозвучивания многих сцен, в предлагаемой полной версии (отсутствует только фрагмент с обращением Сталина по радиоприёмнику в момент поздравления полного разгрома гитлеровских войск под Москвой), полная роль актёра Евгения Моргунова, в роли предателя Стаховича (в переозвученной версии Почепцова), удалённая почти полностью при Хрущёве, портреты Сталина в сценах сохранены, первые оригинальные титры фильма, фамилии героев актёров, оригинальная озвучка 1948 года, прозрачность света в тёмных сценах (на переиздании, корректировка смещена грубо в темноту непроглядную).
Качество видео: VHSRip
Формат видео: AVI
Видео 1: DivX 5 688x512 25.00fps 2040kbps
Видео 2: DivX 5 688x512 25.00fps 2229kbps
Аудио: Dolby AC3 48000Hz stereo 256kbps

MediaInfo

Complete name : 01. Молодая Гвардия (Полная оригинальная версия) (1948) VHSRip.fenixclub.avi
Format : AVI
Format/Info : Audio Video Interleave
File size : 1.50 GiB
Duration : 1h 33mn
Overall bit rate : 2 306 Kbps
Writing application : VirtualDubModRus 1.5.10.2 (build 2540/release)
Writing library : VirtualDubMod build 2540/release
Video
ID : 0
Format : MPEG-4 Visual
Format settings, BVOP : Yes
Format settings, QPel : No
Format settings, GMC : No warppoints
Format settings, Matrix : Default (H.263)
Muxing mode : Packed bitstream
Codec ID : DX50
Codec ID/Hint : DivX 5
Duration : 1h 33mn
Bit rate : 2 041 Kbps
Width : 688 pixels
Height : 512 pixels
Display aspect ratio : 4:3
Frame rate : 25.000 fps
Resolution : 8 bits
Colorimetry : 4:2:0
Scan type : Progressive
Bits/(Pixel*Frame) : 0.232
Stream size : 1.33 GiB (88%)
Writing library : DivX 6.8.5 (UTC 2009-08-20)
Audio
ID : 1
Format : AC-3
Format/Info : Audio Coding 3
Codec ID : 2000
Duration : 1h 33mn
Bit rate mode : Constant
Bit rate : 256 Kbps
Channel(s) : 2 channels
Channel positions : L R
Sampling rate : 48.0 KHz
Stream size : 170 MiB (11%)
Alignment : Split accross interleaves
Interleave, duration : 40 ms (1.00 video frame)
Interleave, preload duration : 500 ms
Complete name : 02. Молодая Гвардия (Полная оригинальная версия) (1948) VHSRip.fenixclub.avi
Format : AVI
Format/Info : Audio Video Interleave
File size : 1.36 GiB
Duration : 1h 18mn
Overall bit rate : 2 495 Kbps
Writing application : VirtualDubModRus 1.5.10.2 (build 2540/release)
Writing library : VirtualDubMod build 2540/release
Video
ID : 0
Format : MPEG-4 Visual
Format settings, BVOP : Yes
Format settings, QPel : No
Format settings, GMC : No warppoints
Format settings, Matrix : Default (H.263)
Muxing mode : Packed bitstream
Codec ID : DX50
Codec ID/Hint : DivX 5
Duration : 1h 18mn
Bit rate : 2 229 Kbps
Width : 688 pixels
Height : 512 pixels
Display aspect ratio : 4:3
Frame rate : 25.000 fps
Resolution : 8 bits
Colorimetry : 4:2:0
Scan type : Progressive
Bits/(Pixel*Frame) : 0.253
Stream size : 1.22 GiB (89%)
Writing library : DivX 6.8.5 (UTC 2009-08-20)
Audio
ID : 1
Format : AC-3
Format/Info : Audio Coding 3
Codec ID : 2000
Duration : 1h 18mn
Bit rate mode : Constant
Bit rate : 256 Kbps
Channel(s) : 2 channels
Channel positions : L R
Sampling rate : 48.0 KHz
Stream size : 143 MiB (10%)
Alignment : Split accross interleaves
Interleave, duration : 40 ms (1.00 video frame)
Interleave, preload duration : 500 ms
-

Скриншоты

-

[Цитировать]



Показать сообщения:    

Текущее время: 10-Дек 15:50

Часовой пояс: UTC + 3


Вы не можете начинать темы
Вы не можете отвечать на сообщения
Вы не можете редактировать свои сообщения
Вы не можете удалять свои сообщения
Вы не можете голосовать в опросах
Вы не можете прикреплять файлы к сообщениям
Вы не можете скачивать файлы

!ВНИМАНИЕ!
Сайт не предоставляет электронные версии произведений, а занимается лишь коллекционированием и каталогизацией ссылок, присылаемых и публикуемых на форуме нашими читателями. Если вы являетесь правообладателем какого-либо представленного материала и не желаете, чтобы ссылка на него находилась в нашем каталоге, свяжитесь с нами, и мы незамедлительно удалим ее. Файлы для обмена на трекере предоставлены пользователями сайта, и администрация не несет ответственности за их содержание. Просьба не заливать файлы, защищенные авторскими правами, а также файлы нелегального содержания!