[ Сегодня идет свободное скачивание без начисления Download ]


Статистика раздачи
Нет
 
   
 
Top  
 
 
-Черные волки-Полная версия-«Найти и обезвредить»- Жанр: Драма, Криминал
Год выпуска: 2011
Продолжительность: 06:34:54--Режиссер: Дмитрий Константинов
Сценарист: Дмитрий Константинов
Оператор: Александр Щурок
Композитор: Дарин Сысоев
Художник-постановщик: Юрий Устинов
Художник по костюмам: Павел Липатов
Продюсеры: Алексей Моисеев, Давид Дишдишян
Производство: ДТ Продакшн--В ролях: Сергей Безруков (Павел Трофимович Хромов, бывший следователь УГРО), Александр Коршунов, Дарья Мороз, Владимир Юматов, Владимир Капустин, Александр Голубев, Алёна Хмельницкая, Дмитрий Мухамадеев, Анатолий Кот, Кристина Бабушкина и др.--Описание: Действие фильма происходит в Ярославле в пятидесятых годах прошлого века. Главный герой, бывший следователь УГРО Павел Хромов, был осужден на восемь лет за преступление, которого не совершал. Освободившись, Павел узнает, что его сестру убили «Черные волки», — так провинциальные жители назвали организованную группировку, которая держит в страхе весь город. На месте преступления, как черную метку, бандиты оставляют волчью голову. Хромову предстоит найти и обезвредить банду и вернуть себе честное имя капитана милиции.-
-
Качество видео:DVDRip -
Формат видео: AVI
Видео: 704x400 (1.76:1), 25 fps, XviD build 64, ~ 2000 kbps avg, ~ 0.29 bit/pixel
Аудио: 48 kHz, AC3 Dolby Digital, 3/2 (L,C,R,l,r) + LFE ch, 448 kbps avg-- -Приятного вам просмотра!-

MediaInfo

Format : AVI
Format/Info : Audio Video Interleave
File size : 892 MiB
Duration : 49mn 10s
Overall bit rate : 2 537 Kbps
Movie name : Chernye.volki.E01.2011.RUS.DVDRip.XviD.AC3.-AngelOfTrue
Director : AngelOfTrue
Writing application : VirtualDubMod 1.5.10.3 | www.virtualdub-fr.org || (build 2550/release)
Video
ID : 0
Format : MPEG-4 Visual
Format profile : Advanced [email protected]
Format settings, BVOP : 1
Format settings, QPel : No
Format settings, GMC : No warppoints
Format settings, Matrix : Custom
Codec ID : XVID
Codec ID/Hint : XviD
Duration : 49mn 10s
Bit rate : 2 079 Kbps
Width : 704 pixels
Height : 400 pixels
Display aspect ratio : 16:9
Frame rate : 25.000 fps
Color space : YUV
Chroma subsampling : 4:2:0
Bit depth : 8 bits
Scan type : Progressive
Compression mode : Lossy
Bits/(Pixel*Frame) : 0.295
Stream size : 731 MiB (82%)
Writing library : XviD 64
Audio
ID : 1
Format : AC-3
Format/Info : Audio Coding 3
Mode extension : CM (complete main)
Codec ID : 2000
Duration : 49mn 10s
Bit rate mode : Constant
Bit rate : 448 Kbps
Channel(s) : 6 channels
Channel positions : Front: L C R, Side: L R, LFE
Sampling rate : 48.0 KHz
Bit depth : 16 bits
Compression mode : Lossy
Stream size : 158 MiB (18%)
Alignment : Split accross interleaves
Interleave, duration : 40 ms (1.00 video frame)
Interleave, preload duration : 500 ms

-

Скриншоты

[Цитировать]



Показать сообщения:    

Текущее время: 04-Дек 17:21

Часовой пояс: UTC + 3


Вы не можете начинать темы
Вы не можете отвечать на сообщения
Вы не можете редактировать свои сообщения
Вы не можете удалять свои сообщения
Вы не можете голосовать в опросах
Вы не можете прикреплять файлы к сообщениям
Вы не можете скачивать файлы

!ВНИМАНИЕ!
Сайт не предоставляет электронные версии произведений, а занимается лишь коллекционированием и каталогизацией ссылок, присылаемых и публикуемых на форуме нашими читателями. Если вы являетесь правообладателем какого-либо представленного материала и не желаете, чтобы ссылка на него находилась в нашем каталоге, свяжитесь с нами, и мы незамедлительно удалим ее. Файлы для обмена на трекере предоставлены пользователями сайта, и администрация не несет ответственности за их содержание. Просьба не заливать файлы, защищенные авторскими правами, а также файлы нелегального содержания!