[ Сегодня идет свободное скачивание без начисления Download ]


Статистика раздачи
Нет
 
   
 
Top  
 
 
Блокада [1-2 из 2] (1973-1977) Информация о фильме
Название: Блокада.
Год выхода: 1973-1977
Жанр: Военный.
Режиссёр: Михаил Ершов.
В ролях: Юрий Соломин, Евгений Лебедев, Ирина Акулова, Лев Золотухин, Владислав Стржельчик, Михаил Ульянов, Даниил Сагал, Борис Горбатов, Сергей Харченко, Георгий Гегечкори, Алексей Преснецов, Юозас Будрайтис, Владимир Зельдин, Александр Разин, Василий Минин, Роман Громадский, Алексей Преснецов, Станислав Фесюнов, Владимир Воронов, Лев Золотухин, Игорь Комаров, Герберт Дмитриев, Герман Хованов, Олег Хроменков, Рудольф Челыщев, Владимир Трещалов, Николай Федорцов, Николай Трофимов, Сергей Филиппов, Данута Столярская, Станислав Станкевич, Виктор Бурхарт, Анатолий Шведерский, Радий Афанасьев, Юрий Дедович, Павел Кашлаков, Владимир Сидоров, Юрий Мальцев, Сергей Брянцев, Эрнст Романов, Зинаида Дорогова, Валерий Смоляков, Альберт Печников, Борис Аракелов, Азамат Багиров, Сергей Полежаев, Валерий Доронин.
Описание:
По одноименному роману А.Чаковского. Одна из самых известных работ Михаила Ершова четырёхсерийная киноэпопея "Блокада", за которую он получил Золотую медаль имени Довженко, создавалась мастером на протяжении семи лет. Фильм посвящен мужеству и стойкости жителей Ленинграда в период с сентября 1941 года по январь 1944 года, который вошел в историю Великой Отечественной войны как блокада Ленинграда…- -Качество: DVDRip (AVC)
Видео: MPEG-4 AVC, 1900 Кбит/с, 720x576@768x576, 708x436@756x436
Аудио: AC3, 6 ch, 448 Кбит/с
Продолжительность: 2 x ~ 02:57:22
Язык: Русский

Содержание

Серия 1:«Лужский рубеж». В июне 1941 года Чрезвычайный штаб обороны Ленинграда, под руководством Жданова и Ворошилова принял решение о строительстве Лужского оборонительного рубежа. Тяжелые бои западнее Пскова вынудили части фронта отходить, а 9 июля - оставить и Псков. Бои на Лужском направлении сдерживали противника. Первые атаки немцев, намеревавшихся с ходу преодолеть Лужский рубеж, были отбиты с большими для них потерями.
Серия 2:«Пулковский меридиан». Осенью 1941 года на подступах к Пулковским высотам шли ожесточённые бои. Немцы танковыми клиньями пробивались к Урицку и Пулковским высотам. Но фашистские танки и мотопехота были остановлены в полутора километрах к югу от Пулковской обсерватории. Советские войска удерживали этот рубеж в течение всех 900 дней блокады.
Серия 3:«Ленинградский метроном». Рассказ о трагических событиях жизни блокадного Ленинграда с сентября 1941 года по январь 1943-го.
Серия 4:«Операция «Искра». «Искра» - кодовое наименование плана операции советских войск по прорыву блокады Ленинграда. В январе 1943 года блокада Ленинграда была прорвана. Между Ладожским озером и линией фронта образовался коридор шириной 8-11 км.

Инфо-файл

Общее
Уникальный идентификатор : 240111992216668113806741929558537438922 (0xB4A3E3388D2757FF99313E7ACE7486CA)
Полное имя : I:Блокада_1973-77-DVDRip-AVCБлокада-1.mkv
Формат : Matroska
Версия формата : Version 2
Размер файла : 2,01 Гбайт
Продолжительность : 1 ч. 44 м.
Общий поток : 2750 Кбит/сек
Дата кодирования : UTC 2015-01-27 05:12:24
Программа кодирования : mkvmerge v5.8.0 ('No Sleep / Pillow') built on Sep 2 2012 15:37:04
Библиотека кодирования : libebml v1.2.3 + libmatroska v1.3.0
Видео
Идентификатор : 1
Формат : AVC
Формат/Информация : Advanced Video Codec
Профиль формата : High@L4.1
Параметр CABAC формата : Да
Параметр ReFrames формата : 15 кадров
Идентификатор кодека : V_MPEG4/ISO/AVC
Продолжительность : 1 ч. 44 м.
Битрейт : 2300 Кбит/сек
Ширина : 720 пикселей
Высота : 576 пикселей
Соотношение сторон : 4:3
Режим частоты кадров : Постоянный
Частота кадров : 25,000 кадров/сек
Стандарт вещания : PAL
Цветовое пространство : YUV
Субдискретизация насыщенности : 4:2:0
Битовая глубина : 8 бит
Тип развёртки : Прогрессивная
Бит/(Пиксели*Кадры) : 0.222
Размер потока : 1,65 Гбайт (82%)
Библиотека кодирования : x264 core 130 r2273 b3065e6
Настройки программы : cabac=1 / ref=15 / deblock=1:-2:-2 / analyse=0x3:0x133 / me=umh / subme=10 / psy=1 / psy_rd=1.10:0.17 / mixed_ref=1 / me_range=32 / chroma_me=1 / trellis=2 / 8x8dct=1 / cqm=0 / deadzone=21,11 / fast_pskip=0 / chroma_qp_offset=-3 / threads=12 / lookahead_threads=2 / sliced_threads=0 / nr=0 / decimate=0 / interlaced=0 / bluray_compat=0 / constrained_intra=0 / bframes=7 / b_pyramid=2 / b_adapt=2 / b_bias=0 / direct=3 / weightb=1 / open_gop=0 / weightp=2 / keyint=250 / keyint_min=25 / scenecut=40 / intra_refresh=0 / rc=2pass / mbtree=0 / bitrate=2300 / ratetol=1.0 / qcomp=0.60 / qpmin=0 / qpmax=39 / qpstep=4 / cplxblur=20.0 / qblur=0.5 / ip_ratio=1.40 / pb_ratio=1.30 / aq=1:1.00
Язык : English
Default : Да
Forced : Нет
Основные цвета : BT.601 PAL
Характеристики трансфера : BT.470 System B, BT.470 System G
Коэффициенты матрицы : BT.601
colour_range : Limited
Аудио
Идентификатор : 2
Формат : AC-3
Формат/Информация : Audio Coding 3
Расширение режима : CM (complete main)
Параметр Endianness формата : Big
Идентификатор кодека : A_AC3
Продолжительность : 1 ч. 44 м.
Вид битрейта : Постоянный
Битрейт : 448 Кбит/сек
Каналы : 6 каналов
Расположение каналов : Front: L C R, Side: L R, LFE
Частота : 48,0 КГц
Битовая глубина : 16 бит
Метод сжатия : С потерями
Размер потока : 336 Мбайт (16%)
Язык : Russian
Default : Да
Forced : Нет

Скриншоты

[Цитировать]



Показать сообщения:    

Текущее время: 08-Дек 07:08

Часовой пояс: UTC + 3


Вы не можете начинать темы
Вы не можете отвечать на сообщения
Вы не можете редактировать свои сообщения
Вы не можете удалять свои сообщения
Вы не можете голосовать в опросах
Вы не можете прикреплять файлы к сообщениям
Вы не можете скачивать файлы

!ВНИМАНИЕ!
Сайт не предоставляет электронные версии произведений, а занимается лишь коллекционированием и каталогизацией ссылок, присылаемых и публикуемых на форуме нашими читателями. Если вы являетесь правообладателем какого-либо представленного материала и не желаете, чтобы ссылка на него находилась в нашем каталоге, свяжитесь с нами, и мы незамедлительно удалим ее. Файлы для обмена на трекере предоставлены пользователями сайта, и администрация не несет ответственности за их содержание. Просьба не заливать файлы, защищенные авторскими правами, а также файлы нелегального содержания!