[ Сегодня идет свободное скачивание без начисления Download ]


Статистика раздачи
Нет
 
   
 
Top  
 
 
Операция "Эники-Беники"
Жанр: комедия, детский
Год выпуска: 2004
Продолжительность: 01:1107
Режиссёр: Юрий Рогозин
В ролях: Игорь Виноградов, Марина Полицеймако, Михаил Полицеймако, Анатолий Равикович, Наталья Рогожкина, Евгений Стычкин, Валентина Талызина, Пётр Меркурьев, Дмитрий Шевченко, Елена Воробей
Описание: Главный герой, 8-летний мальчик, за один день успевает доставить массу хлопот многим взрослым. По его милости едва не срывается спектакль в местном театре, почти разлаживается тщательно подготовленное сватовство, милицейский наряд теряет арестованных, а два человека (причем один из них — пожилой и солидный) весь день напролет бегают по городу, пытаясь избавиться от сковавшей их пары наручников. А мальчик в общем-то ничего плохого не хотел: он просто решил найти своего папу, которого никогда не видел.
Доп. информация:
Сценаристы: Андрей Самсонов, Сергей Сергеев, Юрий Рогозин
Оператор: Сергей Юриздицкий
Художник: Сергей Гавриленков
Продюсеры: Игорь Толстунов, Михаил Зильберман
Производство: НТВ-Профит
Год: 2004

КИНО-ТЕАТР.ru
DVDRip в AVI
Качество видео: TVRip
Формат видео: MPEG2
Видео: MPEG2 Video 720x576 (4:3) 25.00fps 5446 Кбит/сек
Аудио: MPEG Audio 48000Hz stereo192kbps

MediaInfo

Общее
Полное имя : K:\нерозданое\EhNIKI.BENIKI.2004.mpg
Формат : MPEG-PS
Размер файла : 2,86 Гбайт
Продолжительность : 1 ч. 11 м.
Общий поток : 5753 Кбит/сек
Видео
Идентификатор : 224 (0xE0)
Формат : MPEG Video
Версия формата : Version 2
Профиль формата : Main@Main
Параметр BVOP формата : Да
Параметр матрицы формата : По умолчанию
Продолжительность : 1 ч. 11 м.
Вид битрейта : Переменный
Битрейт : 5446 Кбит/сек
Номинальный битрейт : 9400 Кбит/сек
Ширина : 720 пикс.
Высота : 576 пикс.
Соотношение сторон : 4:3
Частота кадров : 25,000 кадр/сек
Стандарт вещания : PAL
Цветовое пространство : YUV
Подвыборка цветности : 4:2:0
Битовая глубина : 8 бит
Тип развёртки : Чересстрочная
Порядок развёртки : Верхнее поле первое
Метод сжатия : С потерями
Бит/(Пиксели*Кадры) : 0.525
Размер потока : 2,71 Гбайт (95%)
Аудио
Идентификатор : 192 (0xC0)
Формат : MPEG Audio
Версия формата : Version 1
Профиль формата : Layer 2
Продолжительность : 1 ч. 11 м.
Вид битрейта : Постоянный
Битрейт : 192 Кбит/сек
Каналы : 2 канала
Частота : 48,0 КГц
Метод сжатия : С потерями
Размер потока : 97,7 Мбайт (3%)

Скриншоты

[Цитировать]



Показать сообщения:    

Текущее время: 09-Дек 05:00

Часовой пояс: UTC + 3


Вы не можете начинать темы
Вы не можете отвечать на сообщения
Вы не можете редактировать свои сообщения
Вы не можете удалять свои сообщения
Вы не можете голосовать в опросах
Вы не можете прикреплять файлы к сообщениям
Вы не можете скачивать файлы

!ВНИМАНИЕ!
Сайт не предоставляет электронные версии произведений, а занимается лишь коллекционированием и каталогизацией ссылок, присылаемых и публикуемых на форуме нашими читателями. Если вы являетесь правообладателем какого-либо представленного материала и не желаете, чтобы ссылка на него находилась в нашем каталоге, свяжитесь с нами, и мы незамедлительно удалим ее. Файлы для обмена на трекере предоставлены пользователями сайта, и администрация не несет ответственности за их содержание. Просьба не заливать файлы, защищенные авторскими правами, а также файлы нелегального содержания!