[ Сегодня идет свободное скачивание без начисления Download ]


Статистика раздачи
Скачал: [ 1 ]
 
   
 
Top  
 
 
Кащей Бессмертный
Жанр: сказка, детский
Год выпуска: 1944
Продолжительность: 01:03:30
Режиссёр: Александр Роу
В ролях: Георгий Милляр, Сергей Столяров, Александр Ширшов, Галина Григорьева, Иван Рыжов, Сергей Троицкий, Леонид Кровицкий, Сергей Филиппов, Петр Галаджев, Иван Бобров, Эммануил Геллер
Описание: Сказка о русском богатыре - Никите Кожемяке, о его боевом друге - Булате Балагуре, о Марье Моревне - красоте ненаглядной, о злом вороге Кащее Бессмертном...
Одна из первых сказочных экранизаций, в оригинальной черно-белой версии, которая сохранилась до наших дней и не потеряла своего очарования. Фильм «Кащей Бессмертный», снятый еще во время Великой Отечественной войны, по праву вошел в золотой фонд советского кинематографа.
Доп. информация: Восстановленная в 1980 году версия.Рип сделан с ДВД5 Фильм с плавающим соотношением сторон,с переменным заполнением кадра,обрезал только неподвижные чёрные полосы,ничего лишнего не обрезал,фильм в том виде в котором он восстановлен.
Качество видео: DVDRip
Формат видео: AVI
Видео: : Xvid 688x528 (1.30:1) 25.00fps 2265kbps
Аудио: Dolby AC3 48000Hz stereo 2сh 192kbps

MediaInfo

General
Complete name : C:\Users\samsung\Videos\Кащей Бессмертный DVDRip 1944.avi
Format : AVI
Format/Info : Audio Video Interleave
File size : 1.09 GiB
Duration : 1h 3mn
Overall bit rate : 2 466 Kbps
Writing application : VirtualDubMod 1.5.10.2 (build 2540/release)
Writing library : VirtualDubMod build 2540/release
Video
ID : 0
Format : MPEG-4 Visual
Format profile : Advanced Simple@L5
Format settings, BVOP : Yes
Format settings, QPel : No
Format settings, GMC : No warppoints
Format settings, Matrix : Default (H.263)
Codec ID : XVID
Codec ID/Hint : XviD
Duration : 1h 3mn
Bit rate : 2 265 Kbps
Width : 688 pixels
Height : 528 pixels
Display aspect ratio : 4:3
Frame rate : 25.000 fps
Color space : YUV
Chroma subsampling : 4:2:0
Bit depth : 8 bits
Scan type : Progressive
Bits/(Pixel*Frame) : 0.249
Stream size : 1.00 GiB (92%)
Writing library : XviD 1.2.1 (UTC 2008-12-04)
Audio
ID : 1
Format : AC-3
Format/Info : Audio Coding 3
Mode extension : CM (complete main)
Codec ID : 2000
Duration : 1h 3mn
Bit rate mode : Constant
Bit rate : 192 Kbps
Channel(s) : 2 channels
Channel positions : Front: L R
Sampling rate : 48.0 KHz
Bit depth : 16 bits
Stream size : 87.2 MiB (8%)
Alignment : Aligned on interleaves
Interleave, duration : 40 ms (1.00 video frame)
Interleave, preload duration : 512 ms

Скриншоты

[Цитировать]



Показать сообщения:    

Текущее время: 10-Дек 11:57

Часовой пояс: UTC + 3


Вы не можете начинать темы
Вы не можете отвечать на сообщения
Вы не можете редактировать свои сообщения
Вы не можете удалять свои сообщения
Вы не можете голосовать в опросах
Вы не можете прикреплять файлы к сообщениям
Вы не можете скачивать файлы

!ВНИМАНИЕ!
Сайт не предоставляет электронные версии произведений, а занимается лишь коллекционированием и каталогизацией ссылок, присылаемых и публикуемых на форуме нашими читателями. Если вы являетесь правообладателем какого-либо представленного материала и не желаете, чтобы ссылка на него находилась в нашем каталоге, свяжитесь с нами, и мы незамедлительно удалим ее. Файлы для обмена на трекере предоставлены пользователями сайта, и администрация не несет ответственности за их содержание. Просьба не заливать файлы, защищенные авторскими правами, а также файлы нелегального содержания!