[ Сегодня идет свободное скачивание без начисления Download ]


Статистика раздачи
Нет
 
   
 
Top  
 
 
Волшебный халат / Sehirli xalat
Жанр: детский, сказка
Год выпуска: 1964
Продолжительность: 01:15:43
Перевод: Одноголосый закадровый (Slavnus Spacedust)
Cубтитры: русские (sasha20072007)
Оригинальная аудиодорожка: азербайджанский-Режиссёр: Али Саттар Атакишиев-В ролях: Азер Курбанов, Солмаз Хатамова, Коля Логинов, Алиага Агаев, Анатолий Фалькович, Мовсун Санани, Ага Гусейн Джавадов, Исмаил Османлы, Гусейнага Садыхов, Мамед Садыков, Афрасияб Мамедов, Алекпер Гусейн-заде, Али Халилов, Бахадур Алиев, Талят Рахманов, Лютфи Мамедбеков-Описание:
На праздник к азербайджанским пионерам приезжает известный фокусник Ио-Кио, который дарит ребятам «волшебный» халат. Надев этот халат можно перенестись и в прошлое и в будущее. О том, какие невероятные приключения происходят со школьниками Рашидом и Зарифой, когда они надевали «волшебный» халат, и рассказывает это трогательный, по-теперешнему наивный фильм.
Доп. информация:
Релиз группы Кинозал.ТВ.
Немецкий DVD DEFA - ICESTORM
Советский дубляж найти пока не удалось.
Рип с реставрированного немецкого ДВД - sasha200720.
Перевод с немецкого - fedor3, одноголосая озвучка - slavnus.
Русские субтитры - sasha200720.-Семпл: http://multi-up.com/636003-Качество видео: DVDRip
Формат видео: MKV
Видео: MPEG4 Video (H264) 720x544 25.00fps
Аудио: Dolby AC3 48000Hz mono

MediaInfo

General
Unique ID : 243106950206518064240789419172199303425 (0xB6E4B20CE30E029B8507B9E685928901)
Complete name : C:\САШКО\КИНО\1 - ДЛЯ РАЗДАЧИ\Volshebnyj.Halat.1964.x264.DVDRip.mkv
Format : Matroska
Format version : Version 2
File size : 1.37 GiB
Duration : 1h 15mn
Overall bit rate : 2 590 Kbps
Movie name : Волшебный халат 1964 Sehirli xalat by sasha20072007, 2012
Encoded date : UTC 2012-01-25 06:58:38
Writing application : mkvmerge v5.2.1 ('A Far Off Place') built on Jan 7 2012 21:56:27
Writing library : libebml v1.2.3 + libmatroska v1.3.0
Video
ID : 1
Format : AVC
Format/Info : Advanced Video Codec
Format profile : [email protected]
Format settings, CABAC : Yes
Format settings, ReFrames : 8 frames
Codec ID : V_MPEG4/ISO/AVC
Duration : 1h 15mn
Bit rate : 2 198 Kbps
Width : 720 pixels
Height : 544 pixels
Display aspect ratio : 4:3
Frame rate : 25.000 fps
Color space : YUV
Chroma subsampling : 4:2:0
Bit depth : 8 bits
Scan type : Progressive
Bits/(Pixel*Frame) : 0.224
Stream size : 1.14 GiB (83%)
Title : Sehirli xalat
Writing library : x264 core 120 r2146 bcd41db
Encoding settings : cabac=1 / ref=8 / deblock=1:-3:-3 / analyse=0x3:0x133 / me=umh / subme=11 / psy=1 / psy_rd=1.00:0.25 / mixed_ref=1 / me_range=24 / chroma_me=1 / trellis=2 / 8x8dct=1 / cqm=0 / deadzone=6,6 / fast_pskip=1 / chroma_qp_offset=-4 / threads=8 / sliced_threads=0 / nr=0 / decimate=0 / interlaced=0 / bluray_compat=0 / constrained_intra=0 / bframes=8 / b_pyramid=2 / b_adapt=2 / b_bias=0 / direct=3 / weightb=1 / open_gop=0 / weightp=2 / keyint=210 / keyint_min=21 / scenecut=40 / intra_refresh=0 / rc_lookahead=60 / rc=2pass / mbtree=1 / bitrate=2198 / ratetol=1.0 / qcomp=0.80 / qpmin=0 / qpmax=69 / qpstep=4 / cplxblur=20.0 / qblur=0.5 / vbv_maxrate=50000 / vbv_bufsize=50000 / nal_hrd=none / ip_ratio=1.10 / aq=1:0.50
Language : German
Audio #1
ID : 2
Format : AC-3
Format/Info : Audio Coding 3
Mode extension : CM (complete main)
Codec ID : A_AC3
Duration : 1h 15mn
Bit rate mode : Constant
Bit rate : 96.0 Kbps
Channel(s) : 1 channel
Channel positions : Front: C
Sampling rate : 48.0 KHz
Bit depth : 16 bits
Compression mode : Lossy
Stream size : 52.0 MiB (4%)
Language : Azerbaijani
Audio #2
ID : 3
Format : AC-3
Format/Info : Audio Coding 3
Mode extension : CM (complete main)
Codec ID : A_AC3
Duration : 1h 15mn
Bit rate mode : Constant
Bit rate : 96.0 Kbps
Channel(s) : 1 channel
Channel positions : Front: C
Sampling rate : 48.0 KHz
Bit depth : 16 bits
Compression mode : Lossy
Stream size : 52.0 MiB (4%)
Title : Русский (любительский одноголосый slavnus)
Language : Russian
Audio #3
ID : 4
Format : AC-3
Format/Info : Audio Coding 3
Mode extension : CM (complete main)
Codec ID : A_AC3
Duration : 1h 15mn
Bit rate mode : Constant
Bit rate : 192 Kbps
Channel(s) : 2 channels
Channel positions : Front: L R
Sampling rate : 48.0 KHz
Bit depth : 16 bits
Compression mode : Lossy
Stream size : 104 MiB (7%)
Language : German
Text #1
ID : 5
Format : VobSub
Codec ID : S_VOBSUB
Codec ID/Info : The same subtitle format used on DVDs
Title : Русский VobSub
Language : Russian
Text #2
ID : 6
Format : UTF-8
Codec ID : S_TEXT/UTF8
Codec ID/Info : UTF-8 Plain Text
Title : Русский (sasha20072007)
Language : Russian
Menu
00:00:00.000 : :Chapter 01
00:02:03.440 : :Chapter 02
00:18:35.640 : :Chapter 03
00:37:49.400 : :Chapter 04
00:57:00.800 : :Chapter 05
01:15:13.720 : :Chapter 06
01:15:43.280 : :Chapter 07

Скриншот с названием фильма

Скриншоты

[Цитировать]



Показать сообщения:    

Текущее время: 06-Дек 05:55

Часовой пояс: UTC + 3


Вы не можете начинать темы
Вы не можете отвечать на сообщения
Вы не можете редактировать свои сообщения
Вы не можете удалять свои сообщения
Вы не можете голосовать в опросах
Вы не можете прикреплять файлы к сообщениям
Вы не можете скачивать файлы

!ВНИМАНИЕ!
Сайт не предоставляет электронные версии произведений, а занимается лишь коллекционированием и каталогизацией ссылок, присылаемых и публикуемых на форуме нашими читателями. Если вы являетесь правообладателем какого-либо представленного материала и не желаете, чтобы ссылка на него находилась в нашем каталоге, свяжитесь с нами, и мы незамедлительно удалим ее. Файлы для обмена на трекере предоставлены пользователями сайта, и администрация не несет ответственности за их содержание. Просьба не заливать файлы, защищенные авторскими правами, а также файлы нелегального содержания!