[ Сегодня идет свободное скачивание без начисления Download ]


Статистика раздачи
Нет
 
   
 
Top  
 
 
Иванко и царь Поганин
Жанр: Сказка
Год выпуска: 1984
Продолжительность: 01:19:15
Режиссёр: Борис Небиеридзе
В ролях: Гриша Павленко,Нодар Мгалоблишвили,Лев Дуров,Виктор Андриенко,Анастасия Гиренкова,Мария Капнист,Игорь Стариков
Описание: Сказка о маленьком Иванко, разлученном с матерью, которую вместе со всеми жителями села угнали в плен слуги царя Поганина. Он преодолел множество трудностей, не побоялся злого царя Поганина , вызволил из плена свою мать и односельчан.
Доп. информация: Укртелефильм Украина
Рип сделан -
Сэмпл http://multi-up.com/643127
Качество видео: TVRip
Формат видео: AVI
Видео: Xvid 544x416 (1.30:1) 25.00fps 1113kbps
Аудио: Dolby AC3 48000Hz 2 ch stereo 192kbp - псевдостерео

MediaInfo

General
Complete name : C:\Users\samsung\Videos\Иванко и царь Поганин DVDRip 1984.avi
Format : AVI
Format/Info : Audio Video Interleave
File size : 745 MiB
Duration : 1h 19mn
Overall bit rate : 1 314 Kbps
Writing application : VirtualDubMod 1.5.10.2 (build 2540/release)
Writing library : VirtualDubMod build 2540/release
Video
ID : 0
Format : MPEG-4 Visual
Format profile : Advanced Simple@L5
Format settings, BVOP : Yes
Format settings, QPel : No
Format settings, GMC : No warppoints
Format settings, Matrix : Default (H.263)
Codec ID : XVID
Codec ID/Hint : XviD
Duration : 1h 19mn
Bit rate : 1 113 Kbps
Width : 544 pixels
Height : 416 pixels
Display aspect ratio : 4:3
Frame rate : 25.000 fps
Color space : YUV
Chroma subsampling : 4:2:0
Bit depth : 8 bits
Scan type : Progressive
Bits/(Pixel*Frame) : 0.197
Stream size : 631 MiB (85%)
Writing library : XviD 1.2.1 (UTC 2008-12-04)
Audio
ID : 1
Format : AC-3
Format/Info : Audio Coding 3
Mode extension : CM (complete main)
Codec ID : 2000
Duration : 1h 19mn
Bit rate mode : Constant
Bit rate : 192 Kbps
Channel(s) : 2 channels
Channel positions : Front: L R
Sampling rate : 48.0 KHz
Bit depth : 16 bits
Stream size : 109 MiB (15%)
Alignment : Aligned on interleaves
Interleave, duration : 40 ms (1.00 video frame)
Interleave, preload duration : 512 ms
Внимание торент файл перезалит 05.02.2012,заменил звуковую дорожку.

[Цитировать]



Показать сообщения:    

Текущее время: 08-Дек 23:04

Часовой пояс: UTC + 3


Вы не можете начинать темы
Вы не можете отвечать на сообщения
Вы не можете редактировать свои сообщения
Вы не можете удалять свои сообщения
Вы не можете голосовать в опросах
Вы не можете прикреплять файлы к сообщениям
Вы не можете скачивать файлы

!ВНИМАНИЕ!
Сайт не предоставляет электронные версии произведений, а занимается лишь коллекционированием и каталогизацией ссылок, присылаемых и публикуемых на форуме нашими читателями. Если вы являетесь правообладателем какого-либо представленного материала и не желаете, чтобы ссылка на него находилась в нашем каталоге, свяжитесь с нами, и мы незамедлительно удалим ее. Файлы для обмена на трекере предоставлены пользователями сайта, и администрация не несет ответственности за их содержание. Просьба не заливать файлы, защищенные авторскими правами, а также файлы нелегального содержания!