[ Сегодня идет свободное скачивание без начисления Download ]


Статистика раздачи
Нет
 
   
 
Top  
 
 
Тайна железной двери
Жанр: детский, экранизация
Год выпуска: 1970
Продолжительность: 01:08:16
Режиссёр: Михаил Юзовский
В ролях: Эвальдас Микалюнас, Андрей Харыбин, Митя Юзовский, Сергей Евсюнин, Алиса Фрейндлих, Олег Табаков, Юрий Успенский, Савелий Крамаров, Светлана Старикова, Георгий Светлани, А. Иванов(VI), Борис Майоров, Евгений Майоров, Николай Сологубов, В.Брежнев, Э.Иванов
Описание: По книге Юрия Томина «Шел по городу волшебник».
Четвероклассник Толик Рыжков, удирая от постового милиционера, случайно познакомился с волшебником и стал обладателем спичек, исполняющих все его желания и капризы. Вместе с другом Толик очутился на необыкновенном острове, где все плохое считается хорошим, а хорошее - плохим. К тому же, ребята вскоре поняли, что им возвращаться придется самостоятельно...
Доп. информация:
Сценарист: Александр Рейжевский
Оператор: Виталий Гришин
Композитор: Вадим Гамалея
Художники: Людмила Безсмертнова, Александр Вагичев
Производство: Киностудия им. Горького
Премьера: 23 августа 1971

КИНО-ТЕАТР.ru
DVDRip в AVI 1.22 GB
DVDRip в AVI 679 MB
DVDRip в AVI 965 MB
DVD 5
СРАВНЕНИЕ С DVD 5 [url=http://www. СПАМ здесь [/url]
Качество видео: TVRip
Формат видео: MPEG2
Видео: MPEG2 Video 720x576 (4:3) 25.00fps 4938 Кбит/сек
Аудио: MPEG Audio 48000Hz stereo192kbps

MediaInfo

Общее
Полное имя : D:\TORENT4\TAYjNA.DVERI.1970.mpg
Формат : MPEG-PS
Размер файла : 2,50 Гбайт
Продолжительность : 1 ч. 8 м.
Режим общего битрейта : Переменный
Общий поток : 5234 Кбит/сек
Видео
Идентификатор : 224 (0xE0)
Формат : MPEG Video
Версия формата : Version 2
Профиль формата : Main@Main
Параметр BVOP формата : Да
Параметр матрицы формата : По умолчанию
Продолжительность : 1 ч. 8 м.
Вид битрейта : Переменный
Битрейт : 4938 Кбит/сек
Максимальный битрейт : 9400 Кбит/сек
Ширина : 720 пикселей
Высота : 576 пикселей
Соотношение сторон : 4:3
Частота кадров : 25,000 кадров/сек
Стандарт вещания : PAL
Цветовое пространство : YUV
Субдискретизация насыщенности : 4:2:0
Битовая глубина : 8 бит
Тип развёртки : Чересстрочная
Порядок развёртки : Верхнее поле первое
Метод сжатия : С потерями
Бит/(Пиксели*Кадры) : 0.476
Размер потока : 2,35 Гбайт (94%)
Основные цвета : BT.470-2 System B, BT.470-2 System G
Характеристики трансфера : BT.470-2 System B, BT.470-2 System G
Коэффициенты матрицы : BT.470-2 System B, BT.470-2 System G
Аудио
Идентификатор : 192 (0xC0)
Формат : MPEG Audio
Версия формата : Version 1
Профиль формата : Layer 2
Продолжительность : 1 ч. 8 м.
Вид битрейта : Постоянный
Битрейт : 192 Кбит/сек
Каналы : 2 канала
Частота : 48,0 КГц
Метод сжатия : С потерями
Размер потока : 93,8 Мбайт (4%)

[Цитировать]



Показать сообщения:    

Текущее время: 03-Дек 01:16

Часовой пояс: UTC + 3


Вы не можете начинать темы
Вы не можете отвечать на сообщения
Вы не можете редактировать свои сообщения
Вы не можете удалять свои сообщения
Вы не можете голосовать в опросах
Вы не можете прикреплять файлы к сообщениям
Вы не можете скачивать файлы

!ВНИМАНИЕ!
Сайт не предоставляет электронные версии произведений, а занимается лишь коллекционированием и каталогизацией ссылок, присылаемых и публикуемых на форуме нашими читателями. Если вы являетесь правообладателем какого-либо представленного материала и не желаете, чтобы ссылка на него находилась в нашем каталоге, свяжитесь с нами, и мы незамедлительно удалим ее. Файлы для обмена на трекере предоставлены пользователями сайта, и администрация не несет ответственности за их содержание. Просьба не заливать файлы, защищенные авторскими правами, а также файлы нелегального содержания!