[ Сегодня идет свободное скачивание без начисления Download ]


Статистика раздачи
Нет
 
   
 
Top  
 
 
Любимец публики
Жанр: экранизация, детский, семейный
Год выпуска: 1985
Продолжительность: 01:17:08
Режиссёр: Нана Клдиашвили, Александр Згуриди
В ролях: Анатолий Ромашин, Кирилл Головко-Серский, Амаяк Акопян, Альгимантас Масюлис, Нонна Терентьева, Юрий Саранцев, Игорь Кашинцев, Георгий Куликов, Михаил Зимин, Наталья Головко, Николай Николаев-Никольский, Ия Нинидзе, Михаил Ефимов, Александр Серский
Описание: По рассказу А.Куприна «Белый пудель»
Несправедливо обиженный хозяином цирка, любимец публики – клоун Никита Лопатин – покидает цирк, в котором выступал много лет. Вместе со своим племянником Сережей и цирковым пуделем Арто, Лопатин отправляется в Феодосию, давая по пути уличные представления чтобы заработать на жизнь…
Качество видео: DVB
Формат видео: MPG
Видео: MPEG 2, 704x576@768x576 (1,22:1), 25,000 fps, ~3534 Kbps, 0,36 b/px
Аудио: MPEG 1 Layer 2, 48000 Hz, 112 Kbps, 2ch

MediaInfo

General
Complete name : C:\Users\User\Desktop\Раздачи\Любимец публики (1985) DVB.mpg
Format : MPEG-PS
File size : 2.07 GiB
Duration : 1h 17mn
Overall bit rate : 3 851 Kbps
Video
ID : 224 (0xE0)
Format : MPEG Video
Format version : Version 2
Format profile : Main@Main
Format settings, BVOP : Yes
Format settings, Matrix : Default
Format settings, GOP : M=3, N=22
Duration : 1h 17mn
Bit rate mode : Variable
Bit rate : 3 619 Kbps
Width : 704 pixels
Height : 576 pixels
Display aspect ratio : 4:3
Frame rate : 25.000 fps
Standard : PAL
Color space : YUV
Chroma subsampling : 4:2:0
Bit depth : 8 bits
Scan type : Interlaced
Scan order : Top Field First
Compression mode : Lossy
Bits/(Pixel*Frame) : 0.357
Stream size : 1.93 GiB (93%)
Audio
ID : 192 (0xC0)
Format : MPEG Audio
Format version : Version 1
Format profile : Layer 2
Duration : 1h 17mn
Bit rate mode : Constant
Bit rate : 192 Kbps
Channel(s) : 2 channels
Sampling rate : 48.0 KHz
Compression mode : Lossy
Stream size : 106 MiB (5%)

Скриншот c названием фильма

Скриншоты

После скачивания - сидируйте

[Цитировать]



Показать сообщения:    

Текущее время: 10-Дек 00:15

Часовой пояс: UTC + 3


Вы не можете начинать темы
Вы не можете отвечать на сообщения
Вы не можете редактировать свои сообщения
Вы не можете удалять свои сообщения
Вы не можете голосовать в опросах
Вы не можете прикреплять файлы к сообщениям
Вы не можете скачивать файлы

!ВНИМАНИЕ!
Сайт не предоставляет электронные версии произведений, а занимается лишь коллекционированием и каталогизацией ссылок, присылаемых и публикуемых на форуме нашими читателями. Если вы являетесь правообладателем какого-либо представленного материала и не желаете, чтобы ссылка на него находилась в нашем каталоге, свяжитесь с нами, и мы незамедлительно удалим ее. Файлы для обмена на трекере предоставлены пользователями сайта, и администрация не несет ответственности за их содержание. Просьба не заливать файлы, защищенные авторскими правами, а также файлы нелегального содержания!