[ Today is free to download without increasing Download ]

DL-List and Torrent activity
Любимец публики
Жанр: экранизация, детский, семейный
Год выпуска: 1985
Продолжительность: 01:17:08
Режиссёр: Нана Клдиашвили, Александр Згуриди
В ролях: Анатолий Ромашин, Кирилл Головко-Серский, Амаяк Акопян, Альгимантас Масюлис, Нонна Терентьева, Юрий Саранцев, Игорь Кашинцев, Георгий Куликов, Михаил Зимин, Наталья Головко, Николай Николаев-Никольский, Ия Нинидзе, Михаил Ефимов, Александр Серский
Описание: По рассказу А.Куприна «Белый пудель»
Несправедливо обиженный хозяином цирка, любимец публики – клоун Никита Лопатин – покидает цирк, в котором выступал много лет. Вместе со своим племянником Сережей и цирковым пуделем Арто, Лопатин отправляется в Феодосию, давая по пути уличные представления чтобы заработать на жизнь…
Качество видео: DVB
Формат видео: MPG
Видео: MPEG 2, 704x576@768x576 (1,22:1), 25,000 fps, ~3534 Kbps, 0,36 b/px
Аудио: MPEG 1 Layer 2, 48000 Hz, 112 Kbps, 2ch


Complete name : C:\Users\User\Desktop\Раздачи\Любимец публики (1985) DVB.mpg
Format : MPEG-PS
File size : 2.07 GiB
Duration : 1h 17mn
Overall bit rate : 3 851 Kbps
ID : 224 (0xE0)
Format : MPEG Video
Format version : Version 2
Format profile : Main@Main
Format settings, BVOP : Yes
Format settings, Matrix : Default
Format settings, GOP : M=3, N=22
Duration : 1h 17mn
Bit rate mode : Variable
Bit rate : 3 619 Kbps
Width : 704 pixels
Height : 576 pixels
Display aspect ratio : 4:3
Frame rate : 25.000 fps
Standard : PAL
Color space : YUV
Chroma subsampling : 4:2:0
Bit depth : 8 bits
Scan type : Interlaced
Scan order : Top Field First
Compression mode : Lossy
Bits/(Pixel*Frame) : 0.357
Stream size : 1.93 GiB (93%)
ID : 192 (0xC0)
Format : MPEG Audio
Format version : Version 1
Format profile : Layer 2
Duration : 1h 17mn
Bit rate mode : Constant
Bit rate : 192 Kbps
Channel(s) : 2 channels
Sampling rate : 48.0 KHz
Compression mode : Lossy
Stream size : 106 MiB (5%)

Скриншот c названием фильма


После скачивания - сидируйте


Display posts:    

Current time is: 20-Oct 22:36

All times are UTC + 3

You cannot post new topics in this forum
You cannot reply to topics in this forum
You cannot edit your posts in this forum
You cannot delete your posts in this forum
You cannot vote in polls in this forum
You cannot attach files in this forum
You cannot download files in this forum

The site does not give electronic versions of products, and is engaged only in a collecting and cataloguing of the references sent and published at a forum by our readers. If you are the legal owner of any submitted material and do not wish that the reference to it was in our catalogue, contact us and we shall immediately remove her. Files for an exchange on tracker are given by users of a site, and the administration does not bear the responsibility for their maintenance. The request to not fill in the files protected by copyrights, and also files of the illegal maintenance!