[ Today is free to download without increasing Download ]

DL-List and Torrent activity
Ледяная внучка
Жанр: сказка
Год выпуска: 1980
Продолжительность: 01:10:10
Режиссёр: Борис Рыцарев
В ролях: Светлана Орлова, Андрей Градов, Людмила Шагалова, Борис Сабуров, Альберт Филозов, Валерий Долженков, Ольга Григорьева, Владимир Никитин, Владимир Дружников
Описание: Полюбился Снегурке деревенский гончар - да так сильно, что захотела она стать обыкновенной девушкой и выйти за него замуж. Но красота ее приглянулась коварному князю. Обманом и наветами он разлучает влюбленных - и сердце Снегурки снова становится ледяным. Только вера и любовь суженого смогут его отогреть...
Качество видео: DVDRip (исходник - )
Формат видео: AVI
Видео: Xvid 688x512 (1.34:1) 25.00fps 2393kbps avg, 0.27 bit/pixel
Аудио: 48 kHz, AC3 Dolby Digital, 3/2 (L,C,R,l,r) + LFE ch, ~384 kbps avg


Complete name : C:\Users\samsung\Videos\Ледяная внучка DVDRip 1980.avi
Format : AVI
Format/Info : Audio Video Interleave
File size : 1.37 GiB
Duration : 1h 10mn
Overall bit rate : 2 786 Kbps
Writing library : VirtualDub build 32661/release
ID : 0
Format : MPEG-4 Visual
Format profile : Advanced Simple@L5
Format settings, BVOP : Yes
Format settings, QPel : No
Format settings, GMC : No warppoints
Format settings, Matrix : Default (H.263)
Muxing mode : Packed bitstream
Codec ID : XVID
Codec ID/Hint : XviD
Duration : 1h 10mn
Bit rate : 2 393 Kbps
Width : 688 pixels
Height : 512 pixels
Display aspect ratio : 4:3
Frame rate : 25.000 fps
Color space : YUV
Chroma subsampling : 4:2:0
Bit depth : 8 bits
Scan type : Progressive
Bits/(Pixel*Frame) : 0.272
Stream size : 1.17 GiB (86%)
Writing library : XviD 1.3.0.dev55
ID : 1
Format : AC-3
Format/Info : Audio Coding 3
Mode extension : CM (complete main)
Codec ID : 2000
Duration : 1h 10mn
Bit rate mode : Constant
Bit rate : 384 Kbps
Channel(s) : 6 channels
Channel positions : Front: L C R, Side: L R, LFE
Sampling rate : 48.0 KHz
Bit depth : 16 bits
Stream size : 193 MiB (14%)
Alignment : Aligned on interleaves
Interleave, duration : 40 ms (1.00 video frame)
Interleave, preload duration : 512 ms



Display posts:    

Current time is: 22-Oct 06:34

All times are UTC + 3

You cannot post new topics in this forum
You cannot reply to topics in this forum
You cannot edit your posts in this forum
You cannot delete your posts in this forum
You cannot vote in polls in this forum
You cannot attach files in this forum
You cannot download files in this forum

The site does not give electronic versions of products, and is engaged only in a collecting and cataloguing of the references sent and published at a forum by our readers. If you are the legal owner of any submitted material and do not wish that the reference to it was in our catalogue, contact us and we shall immediately remove her. Files for an exchange on tracker are given by users of a site, and the administration does not bear the responsibility for their maintenance. The request to not fill in the files protected by copyrights, and also files of the illegal maintenance!