[ Сегодня идет свободное скачивание без начисления Download ]


Статистика раздачи
Нет
 
   
 
Top  
 
 
Ледяная внучка
Жанр: сказка
Год выпуска: 1980
Продолжительность: 01:10:10
Режиссёр: Борис Рыцарев
В ролях: Светлана Орлова, Андрей Градов, Людмила Шагалова, Борис Сабуров, Альберт Филозов, Валерий Долженков, Ольга Григорьева, Владимир Никитин, Владимир Дружников
Описание: Полюбился Снегурке деревенский гончар - да так сильно, что захотела она стать обыкновенной девушкой и выйти за него замуж. Но красота ее приглянулась коварному князю. Обманом и наветами он разлучает влюбленных - и сердце Снегурки снова становится ледяным. Только вера и любовь суженого смогут его отогреть...
Качество видео: DVDRip (исходник - )
Формат видео: AVI
Видео: Xvid 688x512 (1.34:1) 25.00fps 2393kbps avg, 0.27 bit/pixel
Аудио: 48 kHz, AC3 Dolby Digital, 3/2 (L,C,R,l,r) + LFE ch, ~384 kbps avg

MediaInfo

General
Complete name : C:\Users\samsung\Videos\Ледяная внучка DVDRip 1980.avi
Format : AVI
Format/Info : Audio Video Interleave
File size : 1.37 GiB
Duration : 1h 10mn
Overall bit rate : 2 786 Kbps
Writing library : VirtualDub build 32661/release
Video
ID : 0
Format : MPEG-4 Visual
Format profile : Advanced Simple@L5
Format settings, BVOP : Yes
Format settings, QPel : No
Format settings, GMC : No warppoints
Format settings, Matrix : Default (H.263)
Muxing mode : Packed bitstream
Codec ID : XVID
Codec ID/Hint : XviD
Duration : 1h 10mn
Bit rate : 2 393 Kbps
Width : 688 pixels
Height : 512 pixels
Display aspect ratio : 4:3
Frame rate : 25.000 fps
Color space : YUV
Chroma subsampling : 4:2:0
Bit depth : 8 bits
Scan type : Progressive
Bits/(Pixel*Frame) : 0.272
Stream size : 1.17 GiB (86%)
Writing library : XviD 1.3.0.dev55
Audio
ID : 1
Format : AC-3
Format/Info : Audio Coding 3
Mode extension : CM (complete main)
Codec ID : 2000
Duration : 1h 10mn
Bit rate mode : Constant
Bit rate : 384 Kbps
Channel(s) : 6 channels
Channel positions : Front: L C R, Side: L R, LFE
Sampling rate : 48.0 KHz
Bit depth : 16 bits
Stream size : 193 MiB (14%)
Alignment : Aligned on interleaves
Interleave, duration : 40 ms (1.00 video frame)
Interleave, preload duration : 512 ms

Скриншоты

[Цитировать]



Показать сообщения:    

Текущее время: 10-Дек 08:02

Часовой пояс: UTC + 3


Вы не можете начинать темы
Вы не можете отвечать на сообщения
Вы не можете редактировать свои сообщения
Вы не можете удалять свои сообщения
Вы не можете голосовать в опросах
Вы не можете прикреплять файлы к сообщениям
Вы не можете скачивать файлы

!ВНИМАНИЕ!
Сайт не предоставляет электронные версии произведений, а занимается лишь коллекционированием и каталогизацией ссылок, присылаемых и публикуемых на форуме нашими читателями. Если вы являетесь правообладателем какого-либо представленного материала и не желаете, чтобы ссылка на него находилась в нашем каталоге, свяжитесь с нами, и мы незамедлительно удалим ее. Файлы для обмена на трекере предоставлены пользователями сайта, и администрация не несет ответственности за их содержание. Просьба не заливать файлы, защищенные авторскими правами, а также файлы нелегального содержания!