[ Сегодня идет свободное скачивание без начисления Download ]


Статистика раздачи
Нет
 
   
 
Top  
 
 
От семи до двенадцати
05.06.14 торрент обновлен, файл заменен на видео лучшего качества, битрейт видео 3040 против 2840
Жанр: приключения, киноальманах
Год выпуска: 1965
Продолжительность: 01:11:18
Режиссёр: Хасан Бакаев, Екатерина Сташевская-Народицкая, Юрий Фридман
В ролях: Игорь Агапкин, Стас Лыкин (Лыхин), Женя Орлов, Т. Сапожникова, Олег Даль, Герман Качин, Даниил Нетребин, Зоя Фёдорова, Лена Пронина, Людмила Шагалова, Валентин Зубков, Нина Агапова, Саша Гуров, Лена Корхина, Боря Кузнецов, Миша Молокоедов, Оля Никольская, Сережа Осипов, Гриша Плоткин, Саша Сингин, Валя Соколова, Юра Титов, Слава Тырлов, Сережа Шалаевский
Описание: В состав альманаха входят короткометражные фильмы "ЧП в 4 "Б", "Черный котенок", "Зонтик".
Доп. информация: Запись потока *.ts со спутника EUTELSAT, микширование в *.mpg программой VideoReDo.
Качество видео: DVB
Формат видео: MPEG-PS
Видео: MPEG Video, 720х576 (4:3), 25,000 кадр/сек, 3040 Кбит/сек
Аудио: MPEG Audio, 192 Кбит/сек, 48,0 КГц, 2 канала

MediaInfo

Общее
Полное имя : D:\MPG\ОТ СЕМИ ДО ДВЕНАДЦАТИ (Дом Кино).mpg
Формат : MPEG-PS
Размер файла : 1,64 Гбайт
Продолжительность : 1 ч. 11 м.
Режим общего битрейта : Переменный
Общий поток : 3298 Кбит/сек
Видео
Идентификатор : 224 (0xE0)
Формат : MPEG Video
Версия формата : Version 2
Профиль формата : [email protected]
Параметр BVOP формата : Да
Параметр матрицы формата : Выборочная
Параметр GOP формата : M=3, N=12
Продолжительность : 1 ч. 11 м.
Вид битрейта : Переменный
Битрейт : 3040 Кбит/сек
Максимальный битрейт : 5000 Кбит/сек
Ширина : 720 пикселей
Высота : 576 пикселей
Соотношение сторон : 4:3
Частота кадров : 25,000 кадров/сек
Стандарт вещания : PAL
Цветовое пространство : YUV
Субдискретизация насыщенности : 4:2:0
Битовая глубина : 8 бит
Тип развёртки : Чересстрочная
Порядок развёртки : Верхнее поле первое
Метод сжатия : С потерями
Бит/(Пиксели*Кадры) : 0.293
Временной код первого кадра : 00:00:00:00
Оригинал временного кода : Group of pictures header
Размер потока : 1,51 Гбайт (92%)
Аудио
Идентификатор : 192 (0xC0)
Формат : MPEG Audio
Версия формата : Version 1
Профиль формата : Layer 2
Продолжительность : 1 ч. 11 м.
Вид битрейта : Постоянный
Битрейт : 192 Кбит/сек
Каналы : 2 канала
Частота : 48,0 КГц
Метод сжатия : С потерями
Задержка видео : 6 мс.
Размер потока : 97,9 Мбайт (6%)

Скриншоты

[Цитировать]



Показать сообщения:    

Текущее время: 05-Дек 19:41

Часовой пояс: UTC + 3


Вы не можете начинать темы
Вы не можете отвечать на сообщения
Вы не можете редактировать свои сообщения
Вы не можете удалять свои сообщения
Вы не можете голосовать в опросах
Вы не можете прикреплять файлы к сообщениям
Вы не можете скачивать файлы

!ВНИМАНИЕ!
Сайт не предоставляет электронные версии произведений, а занимается лишь коллекционированием и каталогизацией ссылок, присылаемых и публикуемых на форуме нашими читателями. Если вы являетесь правообладателем какого-либо представленного материала и не желаете, чтобы ссылка на него находилась в нашем каталоге, свяжитесь с нами, и мы незамедлительно удалим ее. Файлы для обмена на трекере предоставлены пользователями сайта, и администрация не несет ответственности за их содержание. Просьба не заливать файлы, защищенные авторскими правами, а также файлы нелегального содержания!