[ Today is free to download without increasing Download ]

DL-List and Torrent activity
Раз, два - горе не беда
Жанр: Детский, сказка
Год выпуска: 1988
Продолжительность: 01:22:22
Режиссёр: Михаил Юзовский
В ролях: Олег Табаков, Марина Яковлева, Андрей Соколов, Семен Фарада, Николай Караченцев, Владимир Епископосян, Владимир Федоров, Мечислав Юзовский, Виктор Бунаков, Виталий Серов, Татьяна Пельтцер
Описание: Старший брат Иван, победив Кащея, Горыныча и прочую нечисть, отказался от царской дочери и наград, чтобы вернуться домой и жениться на Марье, с которой давно уже уговорился. Царь (Табаков) дико обиделся, младший брат теперь был назначен специальным богатырем. А обиженный царем заморский принц (Караченцов) объявил войну, прикатив неуязвимое страшилище вроде огромного робота-трансформера. Битва началась нешуточная - пиротехники постарались. В конце концов пришлось Ивану снова вступить в бой...
Доп. информация: Исходник-
Семпл: http://multi-up.com/663506
Качество видео: DVDRip
Формат видео: AVI
Видео: Xvid 688x400 (1.72:1) 25.00fps 1996kbps, 0.29 bit/pixel
Аудио: Dolby AC3 48000Hz 6ch 384kbps


Complete name : C:\Users\samsung\Фильмы 2\Раз, два - горе не беда _ DVDRip_ 1988.avi
Format : AVI
Format/Info : Audio Video Interleave
File size : 1.37 GiB
Duration : 1h 22mn
Overall bit rate : 2 390 Kbps
Writing application : VirtualDubMod (build 2540/release)
Writing library : VirtualDubMod build 2540/release
ID : 0
Format : MPEG-4 Visual
Format profile : Advanced Simple@L5
Format settings, BVOP : Yes
Format settings, QPel : No
Format settings, GMC : No warppoints
Format settings, Matrix : Default (H.263)
Codec ID : XVID
Codec ID/Hint : XviD
Duration : 1h 22mn
Bit rate : 1 996 Kbps
Width : 688 pixels
Height : 400 pixels
Display aspect ratio : 16:9
Frame rate : 25.000 fps
Color space : YUV
Chroma subsampling : 4:2:0
Bit depth : 8 bits
Scan type : Progressive
Bits/(Pixel*Frame) : 0.290
Stream size : 1.15 GiB (84%)
Writing library : XviD 1.2.1 (UTC 2008-12-04)
ID : 1
Format : AC-3
Format/Info : Audio Coding 3
Mode extension : CM (complete main)
Codec ID : 2000
Duration : 1h 22mn
Bit rate mode : Constant
Bit rate : 384 Kbps
Channel(s) : 6 channels
Channel positions : Front: L C R, Side: L R, LFE
Sampling rate : 48.0 KHz
Bit depth : 16 bits
Stream size : 226 MiB (16%)
Alignment : Split accross interleaves
Interleave, duration : 40 ms (1.00 video frame)
Interleave, preload duration : 500 ms



Сравнительные сэмплы:Vova468-http://multi-up.com/663506


Display posts:    

Current time is: 25-Oct 20:25

All times are UTC + 3

You cannot post new topics in this forum
You cannot reply to topics in this forum
You cannot edit your posts in this forum
You cannot delete your posts in this forum
You cannot vote in polls in this forum
You cannot attach files in this forum
You cannot download files in this forum

The site does not give electronic versions of products, and is engaged only in a collecting and cataloguing of the references sent and published at a forum by our readers. If you are the legal owner of any submitted material and do not wish that the reference to it was in our catalogue, contact us and we shall immediately remove her. Files for an exchange on tracker are given by users of a site, and the administration does not bear the responsibility for their maintenance. The request to not fill in the files protected by copyrights, and also files of the illegal maintenance!