[ Сегодня идет свободное скачивание без начисления Download ]


Статистика раздачи
Нет
 
   
 
Top  
 
 
Мэри Поппинс, до свидания
Жанр: сказка, музыкальный
Год выпуска: 1983
Продолжительность: 01:03:06 + 01:14:41
Режиссёр: Леонид Квинихидзе
В ролях:
Наталья Андрейченко
Татьяна Воронина
Филипп Рукавишников
Анна Плисецкая
Альберт Филозов
Лембит Ульфсак
Олег Табаков
Лариса Удовиченко
Ирина Скобцева
Зиновий Гердт
Описание:
Семейство Бенкс озабочено поисками няни для своих детей. И как это бывает только в сказке, она появилась прямо из воздуха, прекрасная, ни на кого не похожая. Как раз такая, какую мечтали бы иметь в своем доме всякие любящие родители.
Доп. информация: Бюджетный рип.

Знаете ли вы, что...

  • За Наталью Андрейченко пела Татьяна Воронина, а за Лембита Ульфсака - Павел Смеян.
  • Дядя Анны Плисецкой (Джейн), Азарий Плисецкий, ставил для фильма танцы. Когда девочку привели на пробы, и режиссер спросил: «С кем хочешь играть?», она указала на Филиппа Рукавишникова (Майкл) и в итоге исполнила роль его экранной сестры.
  • Музыкальный материал к фильму записали музыканты группы «Воскресение»: Вадим Голутвин (гитара), Петр Подгородецкий (клавишные), Владимир Воронин (барабаны).
  • В двух эпизодах фильма из магнитофона Майкла звучит знаменитый хит Роберта Палмера «Looking for Clues» (1980). Эта песня также эпизодически звучит в американском фильме-ужасов «Возвращение живых мертвецов — 2».
  • В комнате Робертсона, когда он поёт песню «33 коровы», на стене можно заметить постер французского фильма «Invitation au voyage». Это фильм 1982 года о певице, погибшей от электричества в ванне с молоком; это молоко её любовник/брат-близнец потом перелил в бутылки и пил весь фильм, превращаясь в погибшую.
  • Несмотря на оглушительный успех, актерская карьера не привлекла Анну Плисецкую и Филиппа Рукавишникова. Они пошли по стопам родителей - Анна стала балериной, Филипп - архитектором.
  • Леонид Квинихидзе признавался в интервью, что он снимал вовсе не детский фильм — это была сказка, но сказка для взрослых. То, что фильм очень понравился детям, было неожиданно для него самого.
Качество видео: DVDRip
Формат видео: AVI
Видео: 640x480 (1.33:1), 25 fps, XviD build 64 ~994 kbps avg, 0.13 bit/pixel
Аудио: 48 kHz, MPEG Layer 3, 2 ch, ~128.00 kbps avg
Сэмпл

MediaInfo

Общее
Полное имя : D:\Torrent\Мэри Поппинс, до свидания_1,09\Мэри Поппинс, до свидания_1,09\Мэри Поппинс, до свидания_1,09_1c.avi
Формат : AVI
Формат/Информация : Audio Video Interleave
Размер файла : 511 Мбайт
Продолжительность : 1 ч. 3 м.
Общий поток : 1133 Кбит/сек
Программа кодирования : VirtualDubMod 1.5.10.3 | www.virtualdub-fr.org || (build 2550/release)
Библиотека кодирования : VirtualDubMod build 2550/release
Видео
Идентификатор : 0
Формат : MPEG-4 Visual
Профиль формата : Advanced [email protected]
Параметр BVOP формата : 1
Параметр QPel формата : Нет
Параметр GMC формата : Без точки перехода
Параметр матрицы формата : Выборочная
Идентификатор кодека : XVID
Идентификатор кодека/Подсказка : XviD
Продолжительность : 1 ч. 3 м.
Битрейт : 995 Кбит/сек
Ширина : 640 пикселей
Высота : 480 пикселей
Соотношение сторон : 4:3
Частота кадров : 25,000 кадров/сек
Цветовое пространство : YUV
Субдискретизация насыщенности : 4:2:0
Битовая глубина : 8 бит
Тип развёртки : Прогрессивная
Метод сжатия : С потерями
Бит/(Пиксели*Кадры) : 0.130
Размер потока : 449 Мбайт (88%)
Библиотека кодирования : XviD 64
Аудио
Идентификатор : 1
Формат : MPEG Audio
Версия формата : Version 1
Профиль формата : Layer 3
Идентификатор кодека : 55
Идентификатор кодека/Подсказка : MP3
Продолжительность : 1 ч. 3 м.
Вид битрейта : Постоянный
Битрейт : 128 Кбит/сек
Каналы : 2 канала
Частота : 48,0 КГц
Метод сжатия : С потерями
Размер потока : 57,8 Мбайт (11%)
Выравнивание : Соединение по промежуткам
Продолжительность промежутка : 40 мс. (1,00 видеокадр)
Время предзагрузки промежутка : 504 мс.
Библиотека кодирования : LAME3.98r
Настройки программы : -m s -V 4 -q 0 -lowpass 17 -b 128
Общее
Полное имя : D:\Torrent\Мэри Поппинс, до свидания_1,09\Мэри Поппинс, до свидания_1,09\Мэри Поппинс, до свидания_1.09_2c.avi
Формат : AVI
Формат/Информация : Audio Video Interleave
Размер файла : 605 Мбайт
Продолжительность : 1 ч. 14 м.
Общий поток : 1133 Кбит/сек
Программа кодирования : VirtualDubMod 1.5.10.3 | www.virtualdub-fr.org || (build 2550/release)
Библиотека кодирования : VirtualDubMod build 2550/release
Видео
Идентификатор : 0
Формат : MPEG-4 Visual
Профиль формата : Advanced [email protected]
Параметр BVOP формата : 1
Параметр QPel формата : Нет
Параметр GMC формата : Без точки перехода
Параметр матрицы формата : Выборочная
Идентификатор кодека : XVID
Идентификатор кодека/Подсказка : XviD
Продолжительность : 1 ч. 14 м.
Битрейт : 995 Кбит/сек
Ширина : 640 пикселей
Высота : 480 пикселей
Соотношение сторон : 4:3
Частота кадров : 25,000 кадров/сек
Цветовое пространство : YUV
Субдискретизация насыщенности : 4:2:0
Битовая глубина : 8 бит
Тип развёртки : Прогрессивная
Метод сжатия : С потерями
Бит/(Пиксели*Кадры) : 0.130
Размер потока : 531 Мбайт (88%)
Библиотека кодирования : XviD 64
Аудио
Идентификатор : 1
Формат : MPEG Audio
Версия формата : Version 1
Профиль формата : Layer 3
Идентификатор кодека : 55
Идентификатор кодека/Подсказка : MP3
Продолжительность : 1 ч. 14 м.
Вид битрейта : Постоянный
Битрейт : 128 Кбит/сек
Каналы : 2 канала
Частота : 48,0 КГц
Метод сжатия : С потерями
Размер потока : 68,4 Мбайт (11%)
Выравнивание : Соединение по промежуткам
Продолжительность промежутка : 40 мс. (1,00 видеокадр)
Время предзагрузки промежутка : 504 мс.
Библиотека кодирования : LAME3.98r
Настройки программы : -m s -V 4 -q 0 -lowpass 17 -b 128

Скриншоты



Внимание! Торрент перезалит 22.04.12 в 20:30 Мск в связи с переделкой звука во второй серии, первая без изменений.
Просьба скачать .torrent заново!!!

[Цитировать]



Показать сообщения:    

Текущее время: 06-Дек 21:00

Часовой пояс: UTC + 3


Вы не можете начинать темы
Вы не можете отвечать на сообщения
Вы не можете редактировать свои сообщения
Вы не можете удалять свои сообщения
Вы не можете голосовать в опросах
Вы не можете прикреплять файлы к сообщениям
Вы не можете скачивать файлы

!ВНИМАНИЕ!
Сайт не предоставляет электронные версии произведений, а занимается лишь коллекционированием и каталогизацией ссылок, присылаемых и публикуемых на форуме нашими читателями. Если вы являетесь правообладателем какого-либо представленного материала и не желаете, чтобы ссылка на него находилась в нашем каталоге, свяжитесь с нами, и мы незамедлительно удалим ее. Файлы для обмена на трекере предоставлены пользователями сайта, и администрация не несет ответственности за их содержание. Просьба не заливать файлы, защищенные авторскими правами, а также файлы нелегального содержания!