[ Сегодня идет свободное скачивание без начисления Download ]


Статистика раздачи
Нет
 
   
 
Top  
 
 
Мэри Поппинс, до свидания
Жанр: сказка, музыкальный
Год выпуска: 1983
Продолжительность: 01:03:06 + 01:14:41
Режиссёр: Леонид Квинихидзе
В ролях:
Наталья Андрейченко
Татьяна Воронина
Филипп Рукавишников
Анна Плисецкая
Альберт Филозов
Лембит Ульфсак
Олег Табаков
Лариса Удовиченко
Ирина Скобцева
Зиновий Гердт
Описание:
Семейство Бенкс озабочено поисками няни для своих детей. И как это бывает только в сказке, она появилась прямо из воздуха, прекрасная, ни на кого не похожая. Как раз такая, какую мечтали бы иметь в своем доме всякие любящие родители.
Доп. информация:

Знаете ли вы, что...

  • За Наталью Андрейченко пела Татьяна Воронина, а за Лембита Ульфсака - Павел Смеян.
  • Дядя Анны Плисецкой (Джейн), Азарий Плисецкий, ставил для фильма танцы. Когда девочку привели на пробы, и режиссер спросил: «С кем хочешь играть?», она указала на Филиппа Рукавишникова (Майкл) и в итоге исполнила роль его экранной сестры.
  • Музыкальный материал к фильму записали музыканты группы «Воскресение»: Вадим Голутвин (гитара), Петр Подгородецкий (клавишные), Владимир Воронин (барабаны).
  • В двух эпизодах фильма из магнитофона Майкла звучит знаменитый хит Роберта Палмера «Looking for Clues» (1980). Эта песня также эпизодически звучит в американском фильме-ужасов «Возвращение живых мертвецов — 2».
  • В комнате Робертсона, когда он поёт песню «33 коровы», на стене можно заметить постер французского фильма «Invitation au voyage». Это фильм 1982 года о певице, погибшей от электричества в ванне с молоком; это молоко её любовник/брат-близнец потом перелил в бутылки и пил весь фильм, превращаясь в погибшую.
  • Несмотря на оглушительный успех, актерская карьера не привлекла Анну Плисецкую и Филиппа Рукавишникова. Они пошли по стопам родителей - Анна стала балериной, Филипп - архитектором.
  • Леонид Квинихидзе признавался в интервью, что он снимал вовсе не детский фильм — это была сказка, но сказка для взрослых. То, что фильм очень понравился детям, было неожиданно для него самого.
Качество видео: DVDRip
Формат видео: AVI
Видео: 688x512 (1.34:1), 25 fps, XviD build 64 ~1309 kbps avg, 0.15 bit/pixel
Аудио: 48 kHz, AC3 Dolby Digital, 2/0 (L,R) ch, ~192 kbps
Сэмпл

Сравнения

MediaInfo

Общее
Полное имя : D:\Torrent\Мэри Поппинс, до свидания_1.46\Mr_Chip_1.35\Mery_Poppins_Do_Svidanya!\Mery_01.vob
Формат : Windows Media
Размер файла : 692 Мбайт
Продолжительность : 1 ч. 3 м.
Общий поток : 1533 Кбит/сек
Максимальный общий битрейт : 1534 Кбит/сек
Название фильма : Музыкальная сказка "Мэри Поппинс, до свидания!", 1-ая серия
Исполнитель : Киностудия "Мосфильм", 1983г.
Дата кодирования : UTC 2002-01-22 13:35:13.500
Правообладатель : Гостелерадиофонд, 1995г; "Адепт", 2002г.
Видео
Идентификатор : 2
Формат : WMV2
Идентификатор кодека : WMV2
Идентификатор кодека/Информация : Windows Media Video 8
Описание кодека : Windows Media Video V8
Продолжительность : 1 ч. 3 м.
Битрейт : 1404 Кбит/сек
Ширина : 512 пикселей
Высота : 384 пикселя
Соотношение сторон : 4:3
Частота кадров : 25,000 кадров/сек
Битовая глубина : 8 бит
Бит/(Пиксели*Кадры) : 0.286
Размер потока : 634 Мбайт (92%)
Аудио
Идентификатор : 1
Формат : WMA
Версия формата : Version 2
Идентификатор кодека : 161
Идентификатор кодека/Информация : Windows Media Audio
Описание кодека : Windows Media Audio V8 - 128 kbps, 48 kHz, stereo
Продолжительность : 1 ч. 3 м.
Битрейт : 131 Кбит/сек
Каналы : 2 канала
Частота : 48,0 КГц
Битовая глубина : 16 бит
Размер потока : 59,0 Мбайт (9%)
Общее
Полное имя : D:\Torrent\Мэри Поппинс, до свидания_1.46\Mr_Chip_1.35\Mery_Poppins_Do_Svidanya!\Mery_02.vob
Формат : Windows Media
Размер файла : 693 Мбайт
Продолжительность : 1 ч. 14 м.
Общий поток : 1297 Кбит/сек
Максимальный общий битрейт : 1298 Кбит/сек
Название фильма : Музыкальная сказка "Мэри Поппинс, до свидания!", 2-ая серия
Исполнитель : Киностудия "Мосфильм", 1983г.
Дата кодирования : UTC 2002-01-22 13:54:42.125
Правообладатель : Гостелерадиофонд, 1995г; "Адепт", 2002г.
Видео
Идентификатор : 2
Формат : WMV2
Идентификатор кодека : WMV2
Идентификатор кодека/Информация : Windows Media Video 8
Описание кодека : Windows Media Video V8
Продолжительность : 1 ч. 14 м.
Битрейт : 1168 Кбит/сек
Ширина : 512 пикселей
Высота : 384 пикселя
Соотношение сторон : 4:3
Частота кадров : 25,000 кадров/сек
Битовая глубина : 8 бит
Бит/(Пиксели*Кадры) : 0.238
Размер потока : 624 Мбайт (90%)
Аудио
Идентификатор : 1
Формат : WMA
Версия формата : Version 2
Идентификатор кодека : 161
Идентификатор кодека/Информация : Windows Media Audio
Описание кодека : Windows Media Audio V8 - 128 kbps, 48 kHz, stereo
Продолжительность : 1 ч. 14 м.
Битрейт : 130 Кбит/сек
Каналы : 2 канала
Частота : 48,0 КГц
Битовая глубина : 16 бит
Размер потока : 69,6 Мбайт (10%)

MediaInfo

Общее
Полное имя : D:\Torrent\Мэри Поппинс, до свидания_1.46\Мэри Поппинс, до свидания_1.46\Мэри Поппинс, до свидания_1.46_1c.avi
Формат : AVI
Формат/Информация : Audio Video Interleave
Размер файла : 682 Мбайт
Продолжительность : 1 ч. 3 м.
Общий поток : 1511 Кбит/сек
Программа кодирования : VirtualDubMod 1.5.10.3 | www.virtualdub-fr.org || (build 2550/release)
Библиотека кодирования : VirtualDubMod build 2550/release
Видео
Идентификатор : 0
Формат : MPEG-4 Visual
Профиль формата : Advanced Simple@L5
Параметр BVOP формата : 1
Параметр QPel формата : Нет
Параметр GMC формата : Без точки перехода
Параметр матрицы формата : Выборочная
Идентификатор кодека : XVID
Идентификатор кодека/Подсказка : XviD
Продолжительность : 1 ч. 3 м.
Битрейт : 1309 Кбит/сек
Ширина : 688 пикселей
Высота : 512 пикселей
Соотношение сторон : 4:3
Частота кадров : 25,000 кадров/сек
Цветовое пространство : YUV
Субдискретизация насыщенности : 4:2:0
Битовая глубина : 8 бит
Тип развёртки : Прогрессивная
Метод сжатия : С потерями
Бит/(Пиксели*Кадры) : 0.149
Размер потока : 591 Мбайт (87%)
Библиотека кодирования : XviD 64
Аудио
Идентификатор : 1
Формат : AC-3
Формат/Информация : Audio Coding 3
Расширение режима : CM (complete main)
Идентификатор кодека : 2000
Продолжительность : 1 ч. 3 м.
Вид битрейта : Постоянный
Битрейт : 192 Кбит/сек
Каналы : 2 канала
Расположение каналов : Front: L R
Частота : 48,0 КГц
Битовая глубина : 16 бит
Метод сжатия : С потерями
Размер потока : 86,7 Мбайт (13%)
Выравнивание : Разделение по промежуткам
Продолжительность промежутка : 40 мс. (1,00 видеокадр)
Время предзагрузки промежутка : 500 мс.
Общее
Полное имя : D:\Torrent\Мэри Поппинс, до свидания_1.46\Мэри Поппинс, до свидания_1.46\Мэри Поппинс, до свидания_1.46_2c.avi
Формат : AVI
Формат/Информация : Audio Video Interleave
Размер файла : 805 Мбайт
Продолжительность : 1 ч. 14 м.
Общий поток : 1507 Кбит/сек
Программа кодирования : VirtualDubMod 1.5.10.3 | www.virtualdub-fr.org || (build 2550/release)
Библиотека кодирования : VirtualDubMod build 2550/release
Видео
Идентификатор : 0
Формат : MPEG-4 Visual
Профиль формата : Advanced Simple@L5
Параметр BVOP формата : 1
Параметр QPel формата : Нет
Параметр GMC формата : Без точки перехода
Параметр матрицы формата : Выборочная
Идентификатор кодека : XVID
Идентификатор кодека/Подсказка : XviD
Продолжительность : 1 ч. 14 м.
Битрейт : 1306 Кбит/сек
Ширина : 688 пикселей
Высота : 512 пикселей
Соотношение сторон : 4:3
Частота кадров : 25,000 кадров/сек
Цветовое пространство : YUV
Субдискретизация насыщенности : 4:2:0
Битовая глубина : 8 бит
Тип развёртки : Прогрессивная
Метод сжатия : С потерями
Бит/(Пиксели*Кадры) : 0.148
Размер потока : 697 Мбайт (87%)
Библиотека кодирования : XviD 64
Аудио
Идентификатор : 1
Формат : AC-3
Формат/Информация : Audio Coding 3
Расширение режима : CM (complete main)
Идентификатор кодека : 2000
Продолжительность : 1 ч. 14 м.
Вид битрейта : Постоянный
Битрейт : 192 Кбит/сек
Каналы : 2 канала
Расположение каналов : Front: L R
Частота : 48,0 КГц
Битовая глубина : 16 бит
Метод сжатия : С потерями
Размер потока : 103 Мбайт (13%)
Выравнивание : Разделение по промежуткам
Продолжительность промежутка : 40 мс. (1,00 видеокадр)
Время предзагрузки промежутка : 500 мс.

Скриншоты


Внимание! Торрент перезалит 22.04.12 в 21:30 Мск в связи с переделкой звука во второй серии, первая без изменений.
Просьба скачать .torrent заново!!!

[Цитировать]



Показать сообщения:    

Текущее время: 09-Дек 22:25

Часовой пояс: UTC + 3


Вы не можете начинать темы
Вы не можете отвечать на сообщения
Вы не можете редактировать свои сообщения
Вы не можете удалять свои сообщения
Вы не можете голосовать в опросах
Вы не можете прикреплять файлы к сообщениям
Вы не можете скачивать файлы

!ВНИМАНИЕ!
Сайт не предоставляет электронные версии произведений, а занимается лишь коллекционированием и каталогизацией ссылок, присылаемых и публикуемых на форуме нашими читателями. Если вы являетесь правообладателем какого-либо представленного материала и не желаете, чтобы ссылка на него находилась в нашем каталоге, свяжитесь с нами, и мы незамедлительно удалим ее. Файлы для обмена на трекере предоставлены пользователями сайта, и администрация не несет ответственности за их содержание. Просьба не заливать файлы, защищенные авторскими правами, а также файлы нелегального содержания!