[ Сегодня идет свободное скачивание без начисления Download ]


Статистика раздачи
Скачал: [ 1 ]
 
   
 
Top  
 
 
Садко
Жанр: Фильм-сказка
Год выпуска: 1952
Продолжительность: 01:24:40
Режиссёр: Александр Птушко
В ролях: Сергей Столяров, Алла Ларионова, Нинель Мышкова, Б. Суровцев, Михаил Трояновский, Надир Малишевский, Николай Крючков, Иван Переверзев, Юрий Леонидов, Лев Фенин
Описание: После долгих странствий по свету Садко — гусляр и купец — возвращается домой, в Великий Новгород. Может быть, здесь он найдет свое счастье?! Фильм снят по мотивам онежских былин.

Доп. информация: Обработка изображения для восстановления и сохранения наибольшего количества деталей.
Образец №1 (sample), 2 минуты, 52.9 Мб (светлая сцена)
Образец №2 (sample), 2 минуты, 30.3 Мб (тёмная сцена)
Качество видео: DVDRip-AVC
Формат видео: MKV
Видео: 716x576@764x576 (4:3 PAL), 25 кадр/с, 2372 кбит/с
Аудио 1: русский, AC3, 48 кгц, 224 кбит/с, 2.0 (оригинал 1952 года)
Аудио 2: русский, AC3, 48 кгц, 448 кбит/с, 5.1 (перезапись Мосфильма 1986 года)
Субтитры: русский, английский, французский, испанский, португальский, немецкий, нидерландский, итальянский, японский (растровые DVD), иврит (растровые DVD), китайский (растровые DVD), арабский (растровые DVD)

MediaInfo

Video
ID : 1
Format : AVC
Format/Info : Advanced Video Codec
Format profile : High@L4.0
Format settings, CABAC : Yes
Format settings, ReFrames : 16 frames
Muxing mode : Container profile=Unknown@4.0
Codec ID : V_MPEG4/ISO/AVC
Duration : 1h 24mn
Bit rate : 2 322 Kbps
Width : 716 pixels
Height : 576 pixels
Display aspect ratio : 4:3
Original display aspect ratio : 5:4
Frame rate : 25.000 fps
Resolution : 24 bits
Colorimetry : 4:2:0
Scan type : Progressive
Bits/(Pixel*Frame) : 0.225
Stream size : 1.37 GiB (76%)
Title : Video (~2372 kbit/s)
Writing library : x264 core 116 r2074 2641b9e
Encoding settings : cabac=1 / ref=16 / deblock=1:0:0 / analyse=0x3:0x133 / me=umh / subme=11 / psy=1 / psy_rd=1.00:0.11 / mixed_ref=1 / me_range=32 / chroma_me=1 / trellis=2 / 8x8dct=1 / cqm=0 / deadzone=21,11 / fast_pskip=1 / chroma_qp_offset=-3 / threads=6 / sliced_threads=0 / nr=0 / decimate=1 / interlaced=0 / bluray_compat=0 / constrained_intra=0 / bframes=10 / b_pyramid=2 / b_adapt=2 / b_bias=0 / direct=3 / weightb=1 / open_gop=0 / weightp=2 / keyint=250 / keyint_min=25 / scenecut=40 / intra_refresh=0 / rc=crf / mbtree=0 / crf=20.8 / qcomp=0.74 / qpmin=0 / qpmax=59 / qpstep=4 / ip_ratio=1.40 / pb_ratio=1.30 / aq=2:1.00
Language : Russian
Audio #1
ID : 2
Format : AC-3
Format/Info : Audio Coding 3
Codec ID : A_AC3
Duration : 1h 24mn
Bit rate mode : Constant
Bit rate : 224 Kbps
Channel(s) : 2 channels
Channel positions : L R
Sampling rate : 48.0 KHz
Stream size : 136 MiB (7%)
Title : RUS 1952 Original (2.0)
Language : Russian
Audio #2
ID : 3
Format : AC-3
Format/Info : Audio Coding 3
Codec ID : A_AC3
Duration : 1h 24mn
Bit rate mode : Constant
Bit rate : 448 Kbps
Channel(s) : 6 channels
Channel positions : Front: L C R, Surround: L R, LFE
Sampling rate : 48.0 KHz
Stream size : 271 MiB (15%)
Title : RUS 1986 Mosfilm (5.1)
Language : Russian
Text #1
ID : 4
Format : UTF-8
Codec ID : S_TEXT/UTF8
Codec ID/Info : UTF-8 Plain Text
Title : Russian
Language : Russian
Text #2
ID : 5
Format : UTF-8
Codec ID : S_TEXT/UTF8
Codec ID/Info : UTF-8 Plain Text
Title : English
Language : English
Text #3
ID : 6
Format : UTF-8
Codec ID : S_TEXT/UTF8
Codec ID/Info : UTF-8 Plain Text
Title : Francais
Language : French
Text #4
ID : 7
Format : UTF-8
Codec ID : S_TEXT/UTF8
Codec ID/Info : UTF-8 Plain Text
Title : Espanol (Castillian)
Language : Spanish
Text #5
ID : 8
Format : UTF-8
Codec ID : S_TEXT/UTF8
Codec ID/Info : UTF-8 Plain Text
Title : Italiano
Language : Italian
Text #6
ID : 9
Format : UTF-8
Codec ID : S_TEXT/UTF8
Codec ID/Info : UTF-8 Plain Text
Title : Dutch
Language : Dutch
Text #7
ID : 10
Format : UTF-8
Codec ID : S_TEXT/UTF8
Codec ID/Info : UTF-8 Plain Text
Title : Swedish
Language : Swedish
Text #8
ID : 11
Format : UTF-8
Codec ID : S_TEXT/UTF8
Codec ID/Info : UTF-8 Plain Text
Title : German
Language : German
Text #9
ID : 12
Format : UTF-8
Codec ID : S_TEXT/UTF8
Codec ID/Info : UTF-8 Plain Text
Title : Portugues
Language : Portuguese
Text #10
ID : 13
Format : VobSub
Codec ID : S_VOBSUB
Codec ID/Info : The same subtitle format used on DVDs
Title : Japanese (vobsub)
Language : Japanese
Text #11
ID : 14
Format : VobSub
Codec ID : S_VOBSUB
Codec ID/Info : The same subtitle format used on DVDs
Title : Hebrew (vobsub)
Language : Hebrew
Text #12
ID : 15
Format : VobSub
Codec ID : S_VOBSUB
Codec ID/Info : The same subtitle format used on DVDs
Title : Arabic (vobsub)
Language : Arabic
Text #13
ID : 16
Format : VobSub
Codec ID : S_VOBSUB
Codec ID/Info : The same subtitle format used on DVDs
Title : Chinese (vobsub)
Language : Chinese

Скриншот c названием фильма

Скриншоты DVD / AVC (сравнение)






Скриншоты (без посторонних надписей)

Скриншоты (анаморфное разрешение при воспроизведении, обновление 14.04.2012)

FAQ по просмотру MKV/h.264/AAC














Помогайте раздавать - это лучше, чем "спасибо" !-Торрент файл перезалит от 11.02.2013. Добавлена оригинальная звуковая дорожка 1952 года.

[Цитировать]



Показать сообщения:    

Текущее время: 09-Дек 20:29

Часовой пояс: UTC + 3


Вы не можете начинать темы
Вы не можете отвечать на сообщения
Вы не можете редактировать свои сообщения
Вы не можете удалять свои сообщения
Вы не можете голосовать в опросах
Вы не можете прикреплять файлы к сообщениям
Вы не можете скачивать файлы

!ВНИМАНИЕ!
Сайт не предоставляет электронные версии произведений, а занимается лишь коллекционированием и каталогизацией ссылок, присылаемых и публикуемых на форуме нашими читателями. Если вы являетесь правообладателем какого-либо представленного материала и не желаете, чтобы ссылка на него находилась в нашем каталоге, свяжитесь с нами, и мы незамедлительно удалим ее. Файлы для обмена на трекере предоставлены пользователями сайта, и администрация не несет ответственности за их содержание. Просьба не заливать файлы, защищенные авторскими правами, а также файлы нелегального содержания!