[ Сегодня идет свободное скачивание без начисления Download ]


Статистика раздачи
Нет
 
   
 
Top  
 
 
Золотая рыбка в городе N- -Жанр: Детский, фэнтези
Год выпуска: 2011
Продолжительность: 01:39:40-Режиссёр: Степан Пучинян-В ролях: Екатерина Гусева, Армен Джигарханян, Екатерина Крупенина, Алексей Шевченков, Дмитрий Харатьян, Александр Воробьев, Татьяна Конюхова, Игорь Кулачко, Елена Санаева, Тамара Сёмина-Описание: Мальчик поймал золотую рыбку и ничего не выпросив, отпускает. В знак благодарности, золотая рыбка решила подарить мальчику новый импортный велосипед, о котором мальчик давно мечтал. И вот мальчик приходит домой с новым велосипедом. Родители удивляются, расспрашивают и, естественно, не верят своему сыну. Разве может золотая рыбка дарить велосипеды? Они подозревают сына в воровстве и обмане. Но, наконец, мальчику удается убедить своих родителей и оправдать свое честное имя. Но этот факт немедленно становится достоянием небольшого провинциального городка. На мальчика посыпались просьбы и приказы с немедленным исполнением желаний.- -Качество видео: DVDRip
Формат видео: AVI
Видео: 720x384 (1.88:1), 25 fps, XviD build 50 ~1505 kbps avg, 0.22 bit/pixel
Аудио: 48 kHz, AC3 Dolby Digital, 3/2 (L,C,R,l,r) + LFE ch, ~448.00 kbps avg

MediaInfo

D:\Torrents\Zolotaja.rybka.v.gorode.N.2011.O.DVDRip.ELEKTRI4KA.avi
General
Complete name : D:\Torrents\Zolotaja.rybka.v.gorode.N.2011.O.DVDRip.ELEKTRI4KA.avi
Format : AVI
Format/Info : Audio Video Interleave
File size : 1.37 GiB
Duration : 1h 39mn
Overall bit rate : 1 963 Kbps
Movie name : Zolotaja.rybka.v.gorode.N.2011.O.DVDRip.ELEKTRI4KA
Director : ELEKTRO-Am
Writing application : VirtualDubMod 1.5.10.2 (build 2540/release)
Copyright : ELEKTRI4KA
Video #0
ID : 0
Format : MPEG-4 Visual
Format profile : AdvancedSimple@L5
Format settings, BVOP : Yes
Format settings, QPel : No
Format settings, GMC : No warppoints
Format settings, Matrix : Custom
Codec ID : XVID
Codec ID/Hint : XviD
Duration : 1h 39mn
Bit rate : 1 505 Kbps
Width : 720 pixels
Height : 384 pixels
Display aspect ratio : 1.875
Frame rate : 25.000 fps
Resolution : 24 bits
Colorimetry : 4:2:0
Scan type : Progressive
Bits/(Pixel*Frame) : 0.218
Stream size : 1.05 GiB (77%)
Writing library : XviD 1.2.1 (UTC 2008-12-04)
Audio #1
ID : 1
Format : AC-3
Format/Info : Audio Coding 3
Codec ID : 2000
Duration : 1h 39mn
Bit rate mode : Constant
Bit rate : 448 Kbps
Channel(s) : 6 channels
Channel positions : Front: L C R, Surround: L R, LFE
Sampling rate : 48.0 KHz
Stream size : 319 MiB (23%)
Alignment : Aligned on interleaves
Interleave, duration : 40 ms (1.00 video frame)
Interleave, preload duration : 512 ms

Скриншот c названием фильма

Скриншоты

[Цитировать]



Показать сообщения:    

Текущее время: 08-Дек 21:12

Часовой пояс: UTC + 3


Вы не можете начинать темы
Вы не можете отвечать на сообщения
Вы не можете редактировать свои сообщения
Вы не можете удалять свои сообщения
Вы не можете голосовать в опросах
Вы не можете прикреплять файлы к сообщениям
Вы не можете скачивать файлы

!ВНИМАНИЕ!
Сайт не предоставляет электронные версии произведений, а занимается лишь коллекционированием и каталогизацией ссылок, присылаемых и публикуемых на форуме нашими читателями. Если вы являетесь правообладателем какого-либо представленного материала и не желаете, чтобы ссылка на него находилась в нашем каталоге, свяжитесь с нами, и мы незамедлительно удалим ее. Файлы для обмена на трекере предоставлены пользователями сайта, и администрация не несет ответственности за их содержание. Просьба не заливать файлы, защищенные авторскими правами, а также файлы нелегального содержания!