[ Сегодня идет свободное скачивание без начисления Download ]


Статистика раздачи
Нет
 
   
 
Top  
 
 
Мишка, Серёга и я
Жанр: детский фильм, экранизация
Год выпуска: 1961
Продолжительность: 01:31:48
Режиссёр: Юрий (Георгий) Победоносцев
В ролях: Юрий Козулин, Виктор Семёнов, Валерий Рыжаков, Василий Шукшин, Владимир Гусев, Александр Лебедев, Алла Красовская, Леонид Смирнов, Валерий Пичугин, Лидия Драновская, Галина Васильева, Петр Любешкин, Ян Янакиев, Юрий Чекулаев, Виктория Чаева, Борис Романов (III), Петр Соболевский
Описание: По одноименной повести Н. Зелеранского и Б. Ларина.
В одной из московских школ учились три друга: трус и отличник Гарик, озорник Серега и правдолюбец Мишка. Восьмой "Г", где учились герои, учителя называли восьмым "О", что значит "орда". Но в класс пришел новый классный руководитель Геннадий Николаевич Козлов (Василий Шукшин) и ребятам жить стало интересней..
Доп. информация: Запись потока *.ts со спутника EUTELSAT, микширование в *.mpg программой VideoReDo.
Качество видео: DVB
Формат видео: MPEG-PS
Видео: MPEG Video, 720x576 (4:3), 25,000 кадров/сек, 2070 Кбит/сек
Аудио: MPEG Audio, 48,0 КГц, 192 Кбит/сек, 2 канала

MediaInfo

Общее
Полное имя : E:\Torrent\Мишка Серега и
я\Мишка Серега и я.mpg
Формат : MPEG-PS
Размер файла : 1,48 Гбайт
Продолжительность : 1 ч. 31 м.
Режим общего битрейта : Переменный
Общий поток : 2308 Кбит/сек
Видео
Идентификатор : 224 (0xE0)
Формат : MPEG Video
Версия формата : Version 2
Профиль формата : [email protected]
Параметр BVOP формата : Да
Параметр матрицы формата : Выборочная
Параметр GOP формата : M=1, N=13
Продолжительность : 1 ч. 31 м.
Вид битрейта : Переменный
Битрейт : 2070 Кбит/сек
Максимальный битрейт : 15,0 Мбит/сек
Ширина : 704 пикселя
Высота : 576 пикселей
Соотношение сторон : 4:3
Частота кадров : 25,000 кадров/сек
Стандарт вещания : PAL
Цветовое пространство : YUV
Субдискретизация насыщенности : 4:2:0
Битовая глубина : 8 бит
Тип развёртки : Чересстрочная
Порядок развёртки : Верхнее поле первое
Метод сжатия : С потерями
Бит/(Пиксели*Кадры) : 0.204
Размер потока : 1,33 Гбайт (90%)
Аудио
Идентификатор : 192 (0xC0)
Формат : MPEG Audio
Версия формата : Version 1
Профиль формата : Layer 2
Продолжительность : 1 ч. 31 м.
Вид битрейта : Постоянный
Битрейт : 192 Кбит/сек
Каналы : 2 канала
Частота : 48,0 КГц
Метод сжатия : С потерями
Размер потока : 126 Мбайт (8%)

Скриншоты

[Цитировать]



Показать сообщения:    

Текущее время: 04-Дек 13:16

Часовой пояс: UTC + 3


Вы не можете начинать темы
Вы не можете отвечать на сообщения
Вы не можете редактировать свои сообщения
Вы не можете удалять свои сообщения
Вы не можете голосовать в опросах
Вы не можете прикреплять файлы к сообщениям
Вы не можете скачивать файлы

!ВНИМАНИЕ!
Сайт не предоставляет электронные версии произведений, а занимается лишь коллекционированием и каталогизацией ссылок, присылаемых и публикуемых на форуме нашими читателями. Если вы являетесь правообладателем какого-либо представленного материала и не желаете, чтобы ссылка на него находилась в нашем каталоге, свяжитесь с нами, и мы незамедлительно удалим ее. Файлы для обмена на трекере предоставлены пользователями сайта, и администрация не несет ответственности за их содержание. Просьба не заливать файлы, защищенные авторскими правами, а также файлы нелегального содержания!