[ Сегодня идет свободное скачивание без начисления Download ]


Статистика раздачи
Нет
 
   
 
Top  
 
 
Приключения на маленьких островах
Жанр: детский боевик
Год выпуска: 1985
Продолжительность: 01:08:20
Режиссёр: Усман Сапаров.
В ролях: Ата Довлетов, Сердар Дурдыев, Мая Нурягдыева, Ахмурад Хуммедов, Худайберды Ниязов, Ахча Ходжаева, Чары Ходжанов, Джерен Аллабердыева, Фатима Гусейнова, Борис Серговский.
Описание: Родители шестилетнего Керима — геологи. Они постоянно в экспедициях. Мальчик живет с дедушкой-метеорологом на одном из песчаных островов в Каспийском море. Маленький герой чувствует себя покровителем и хозяином окружающего мира. И когда на острове появляются браконьеры, Керим бесстрашно вступает с ними в неравную борьбу.
Доп. информация: Сожалению нет в лучшем качестве
Качество видео: VHSRip
Формат видео: DVD Video
Видео: 352х288, 25,000 кадров/сек, 1388 Кбит/сек
Аудио: 48 КГц, 2 канала, 256 Кбит/сек

Отчет MI

Общее
Полное имя : Приключение на маленьких островах\VIDEO_TS\VTS_01_1.VOB
Формат : MPEG-PS
Размер файла : 820 Мбайт
Продолжительность : 1 ч. 8 м.
Режим общего битрейта : Переменный
Общий поток : 1678 Кбит/сек
Видео
Идентификатор : 224 (0xE0)
Формат : MPEG Video
Версия формата : Version 2
Профиль формата : [email protected]
Параметр BVOP формата : Да
Параметр матрицы формата : По умолчанию
Параметр GOP формата : M=3, N=12
Продолжительность : 1 ч. 8 м.
Вид битрейта : Переменный
Битрейт : 1388 Кбит/сек
Максимальный битрейт : 10000 Кбит/сек
Ширина : 352 пикселя
Высота : 288 пикселей
Соотношение сторон : 4:3
Частота кадров : 25,000 кадров/сек
Стандарт вещания : PAL
Цветовое пространство : YUV
Субдискретизация насыщенности : 4:2:0
Битовая глубина : 8 бит
Тип развёртки : Прогрессивная
Порядок развёртки : Верхнее поле первое
Метод сжатия : С потерями
Бит/(Пиксели*Кадры) : 0.548
Размер потока : 679 Мбайт (83%)
Аудио
Идентификатор : 189 (0xBD)-128 (0x80)
Формат : AC-3
Формат/Информация : Audio Coding 3
Расширение режима : CM (complete main)
Режим смешивания : DVD-Video
Продолжительность : 1 ч. 8 м.
Вид битрейта : Постоянный
Битрейт : 256 Кбит/сек
Каналы : 2 канала
Расположение каналов : Front: L R
Частота : 48,0 КГц
Битовая глубина : 16 бит
Метод сжатия : С потерями
Задержка видео : -80 мс.
Размер потока : 125 Мбайт (15%)

Скриншоты

[Цитировать]



Показать сообщения:    

Текущее время: 05-Дек 23:43

Часовой пояс: UTC + 3


Вы не можете начинать темы
Вы не можете отвечать на сообщения
Вы не можете редактировать свои сообщения
Вы не можете удалять свои сообщения
Вы не можете голосовать в опросах
Вы не можете прикреплять файлы к сообщениям
Вы не можете скачивать файлы

!ВНИМАНИЕ!
Сайт не предоставляет электронные версии произведений, а занимается лишь коллекционированием и каталогизацией ссылок, присылаемых и публикуемых на форуме нашими читателями. Если вы являетесь правообладателем какого-либо представленного материала и не желаете, чтобы ссылка на него находилась в нашем каталоге, свяжитесь с нами, и мы незамедлительно удалим ее. Файлы для обмена на трекере предоставлены пользователями сайта, и администрация не несет ответственности за их содержание. Просьба не заливать файлы, защищенные авторскими правами, а также файлы нелегального содержания!