[ Сегодня идет свободное скачивание без начисления Download ]


Статистика раздачи
Нет
 
   
 
Top  
 
 
Илья Муромец
Жанр: былина
Год выпуска: 1956
Продолжительность: 01:26:46
Режиссёр: Александр Птушко
В ролях: Борис Андреев, Шукур Бурханов, Андрей Абрикосов, Наталья Медведева, Нинель Мышкова, Сергей Мартинсон, Георгий Дёмин, Александр Шворин, Владимир Соловьев, Михаил Пуговкин, Сергей Столяров, Ия Арепина, Тамара Носова, Александра Данилова, Николай Гладков, Пол Фрис, Майк Уоллес, Ау-Сон-Хи, Муратбек Рыскулов, Владимир Тягушев, Садыкбек Джаманов, Шамши Тюменбаев
Описание: Защитник Руси, богатырь Илья Муромец по навету бояр попадает в княжеское подземелье. Но когда на родную землю вновь приходит беда, вынужден князь идти на поклон к Муромцу и друзьям его — Алёше Поповичу и Добрыне Никитичу...
Доп. информация: Первый советский широкоэкранный фильм. Из соображений политкорректности вместо упоминаемых в былинах реальных татар в фильме фигурирует наполовину вымышленный народ "тугары" азиатской наружности, чьим прототипом, очевидно, являются кочевые, ныне малоизвестные племена "тагарской" культуры (тагарцы), обитавшие на территории Минусинской котловины (Хакасия и юг Красноярского края), а их предводитель носит имя Калин — имя былинного царя, не сопоставимое с историческими прототипами.
Исходник: ("Крупный план", полная реставрация изображения и звука)
Качество видео: DVDRip
Формат видео: AVI
Видео: 720x320 (2.25:1), XviD 1.2.1, 25 fps, 2018 kbps, 0.35 bit/pixel
Аудио: Dolby AC3, 48 kHz, 4 ch (Front: L C R, Side: C), 384 kbps

MediaInfo

General
Complete name : D:\Фильмы\Илья Муромец DVDRip 1956.avi
Format : AVI
Format/Info : Audio Video Interleave
File size : 1.46 GiB
Duration : 1h 26mn
Overall bit rate : 2 412 Kbps
Writing application : VirtualDubMod 1.5.10.2 (build 2540/release)
Writing library : VirtualDubMod build 2540/release
Video
ID : 0
Format : MPEG-4 Visual
Format profile : Advanced Simple@L5
Format settings, BVOP : Yes
Format settings, QPel : No
Format settings, GMC : No warppoints
Format settings, Matrix : Default (H.263)
Codec ID : XVID
Codec ID/Hint : XviD
Duration : 1h 26mn
Bit rate : 2 018 Kbps
Width : 720 pixels
Height : 320 pixels
Display aspect ratio : 2.25:1
Frame rate : 25.000 fps
Color space : YUV
Chroma subsampling : 4:2:0
Bit depth : 8 bits
Scan type : Progressive
Bits/(Pixel*Frame) : 0.350
Stream size : 1.22 GiB (84%)
Writing library : XviD 1.2.1 (UTC 2008-12-04)
Audio
ID : 1
Format : AC-3
Format/Info : Audio Coding 3
Mode extension : CM (complete main)
Codec ID : 2000
Duration : 1h 26mn
Bit rate mode : Constant
Bit rate : 384 Kbps
Channel(s) : 4 channels
Channel positions : Front: L C R, Side: C
Sampling rate : 48.0 KHz
Bit depth : 16 bits
Stream size : 238 MiB (16%)
Alignment : Aligned on interleaves
Interleave, duration : 40 ms (1.00 video frame)
Interleave, preload duration : 512 ms

Скриншоты

[Цитировать]



Показать сообщения:    

Текущее время: 10-Дек 00:25

Часовой пояс: UTC + 3


Вы не можете начинать темы
Вы не можете отвечать на сообщения
Вы не можете редактировать свои сообщения
Вы не можете удалять свои сообщения
Вы не можете голосовать в опросах
Вы не можете прикреплять файлы к сообщениям
Вы не можете скачивать файлы

!ВНИМАНИЕ!
Сайт не предоставляет электронные версии произведений, а занимается лишь коллекционированием и каталогизацией ссылок, присылаемых и публикуемых на форуме нашими читателями. Если вы являетесь правообладателем какого-либо представленного материала и не желаете, чтобы ссылка на него находилась в нашем каталоге, свяжитесь с нами, и мы незамедлительно удалим ее. Файлы для обмена на трекере предоставлены пользователями сайта, и администрация не несет ответственности за их содержание. Просьба не заливать файлы, защищенные авторскими правами, а также файлы нелегального содержания!