[ Today is free to download without increasing Download ]

DL-List and Torrent activity
Чужая компания
Жанр: драма
Год выпуска: 1979
Продолжительность: 01:03:31
Режиссёр: Сергей Потепалов
В ролях: Максим Данков, Борис Скачков, Валерий Воробьев, Георгий Киянцев, Михаил Глебов, Владимир Гостюхин, Валентина Талызина, Лидия Петракова
Описание: Женя был принят в компанию сверстников, о которой давно мечтал. Однажды на рыбалке он в шутку спрятал надувную лодку. Друзья избили ни в чем не повинного мальчика. Случившееся потрясло Женю — и он решил отказаться от этой дружбы...
Доп. информация: Запись потока *.ts со спутника EUTELSAT, микширование в *.mpg программой VideoReDo.
Качество видео: DVB
Формат видео: MPEG-PS
Видео: MPEG Video, 544x576 (4:3), 25,000 кадров/сек, 1917 Кбит/сек
Аудио: MPEG Audio, 48,0 КГц, 192 Кбит/сек, 2 канала


Полное имя : E:\Torrent\Чужая компания\Чужая компания.mpg
Формат : MPEG-PS
Размер файла : 977 Мбайт
Продолжительность : 1 ч. 3 м.
Режим общего битрейта : Переменный
Общий поток : 2151 Кбит/сек
Идентификатор : 224 (0xE0)
Формат : MPEG Video
Версия формата : Version 2
Профиль формата : Main@Main
Параметр BVOP формата : Да
Параметр матрицы формата : Выборочная
Продолжительность : 1 ч. 3 м.
Вид битрейта : Переменный
Битрейт : 1917 Кбит/сек
Ширина : 544 пикселя
Высота : 576 пикселей
Соотношение сторон : 4:3
Частота кадров : 25,000 кадров/сек
Цветовое пространство : YUV
Субдискретизация насыщенности : 4:2:0
Битовая глубина : 8 бит
Тип развёртки : Чересстрочная
Порядок развёртки : Верхнее поле первое
Метод сжатия : С потерями
Бит/(Пиксели*Кадры) : 0.245
Размер потока : 871 Мбайт (89%)
Идентификатор : 192 (0xC0)
Формат : MPEG Audio
Версия формата : Version 1
Профиль формата : Layer 2
Продолжительность : 1 ч. 3 м.
Вид битрейта : Постоянный
Битрейт : 192 Кбит/сек
Каналы : 2 канала
Частота : 48,0 КГц
Метод сжатия : С потерями
Размер потока : 87,2 Мбайт (9%)

Скриншоты VirtualDub

Скриншоты VLC плеера


Display posts:    

Current time is: 22-Oct 00:59

All times are UTC + 3

You cannot post new topics in this forum
You cannot reply to topics in this forum
You cannot edit your posts in this forum
You cannot delete your posts in this forum
You cannot vote in polls in this forum
You cannot attach files in this forum
You cannot download files in this forum

The site does not give electronic versions of products, and is engaged only in a collecting and cataloguing of the references sent and published at a forum by our readers. If you are the legal owner of any submitted material and do not wish that the reference to it was in our catalogue, contact us and we shall immediately remove her. Files for an exchange on tracker are given by users of a site, and the administration does not bear the responsibility for their maintenance. The request to not fill in the files protected by copyrights, and also files of the illegal maintenance!