[ Today is free to download without increasing Download ]

DL-List and Torrent activity
Лада из страны Берендеев
Жанр: детский, приключения
Год выпуска: 1971
Продолжительность: 01:26:06
Режиссёр: Анатолий Буковский
В ролях:
Светлана Пелиховская
Майя Булгакова
Николай Яковченко
Николай Гринько
Владимир Дальский
Нина Антонова
Иван Миколайчук
Арсен Рычков
Раиса Недашковская
М. Орлова
Телефильм по мотивам русских народных сказок.Простая девушка Лада попадает в королевство Магнума IV, где проводится конкурс певиц, победа в котором заранее обеспечена "одаренной" дочери короля, принцессе Моггот.
Доп. информация:

Качество видео: SATRip, исходник -
Формат видео: AVI
Видео: 704x528 (1.33:1), 25 fps, XviD build 65 ~2213 kbps avg, 0.24 bit/pixel
Аудио: 48 kHz, AC3 Dolby Digital, 2/0 (L,R) ch, ~192 kbps


Сравнение с - здесь


Complete name : C:\Films\Лада из страны Берендеев\Лада из страны Берендеев_1.46\Лада из страны Берендеев_1.46.avi
Format : AVI
Format/Info : Audio Video Interleave
File size : 1.45 GiB
Duration : 1h 26mn
Overall bit rate : 2 415 Kbps
Writing application : VirtualDubMod | www.virtualdub-fr.org || (build 2550/release)
Writing library : VirtualDubMod build 2550/release
ID : 0
Format : MPEG-4 Visual
Format profile : Advanced Simple@L5
Format settings, BVOP : Yes
Format settings, QPel : No
Format settings, GMC : No warppoints
Format settings, Matrix : Custom
Codec ID : XVID
Codec ID/Hint : XviD
Duration : 1h 26mn
Bit rate : 2 214 Kbps
Width : 704 pixels
Height : 528 pixels
Display aspect ratio : 4:3
Frame rate : 25.000 fps
Color space : YUV
Chroma subsampling : 4:2:0
Bit depth : 8 bits
Scan type : Progressive
Bits/(Pixel*Frame) : 0.238
Stream size : 1.33 GiB (92%)
Writing library : XviD 65
ID : 1
Format : AC-3
Format/Info : Audio Coding 3
Mode extension : CM (complete main)
Codec ID : 2000
Duration : 1h 26mn
Bit rate mode : Constant
Bit rate : 192 Kbps
Channel(s) : 2 channels
Channel positions : Front: L R
Sampling rate : 48.0 KHz
Bit depth : 16 bits
Stream size : 118 MiB (8%)
Alignment : Split accross interleaves
Interleave, duration : 40 ms (1.00 video frame)
Interleave, preload duration : 500 ms



Display posts:    

Current time is: 25-Oct 11:31

All times are UTC + 3

You cannot post new topics in this forum
You cannot reply to topics in this forum
You cannot edit your posts in this forum
You cannot delete your posts in this forum
You cannot vote in polls in this forum
You cannot attach files in this forum
You cannot download files in this forum

The site does not give electronic versions of products, and is engaged only in a collecting and cataloguing of the references sent and published at a forum by our readers. If you are the legal owner of any submitted material and do not wish that the reference to it was in our catalogue, contact us and we shall immediately remove her. Files for an exchange on tracker are given by users of a site, and the administration does not bear the responsibility for their maintenance. The request to not fill in the files protected by copyrights, and also files of the illegal maintenance!