[ Today is free to download without increasing Download ]

DL-List and Torrent activity
05/05/2013 торрент обновлен, файл заменен на видео лучшего качества, битрейт 3300 против 2300
Жанр: экранизация, короткометражный
Год выпуска: 1970
Продолжительность: 00:26:24
Режиссёр: Юрий Мастюгин
В ролях: Дима Сосновский, Юрий Хамутянский, Анатолий Марчевский, Марк Перцовский, Георгий Светлани, Алексей Зайцев, Петр Репнин, Виктор Колпаков, А. Лёвушкин, Иван Рыжов
Описание: Телефильм по мотивам одноименного рассказа М.Горького.
О маленьком мальчике-подмастерьи иконописной мастерской, мечтавшем стать цирковым клоуном.
Доп. информация: Запись потока *.ts со спутника EUTELSAT, микширование в *.mpg программой VideoReDo.
Качество видео: DVB
Формат видео: MPEG-PS
Видео: MPEG Video, 720x576 (4:3), 25,000 кадров/сек, 3 372 Кбит/сек
Аудио: MPEG Audio, 48,0 КГц, 192 Кбит/сек, 2 канала


Complete name : E:\Torrent\ВСТРЯСКА\ВСТРЯСКА.mpg
Format : AVI
Format/Info : Audio Video Interleave
File size : 676 MiB
Duration : 26mn 23s
Overall bit rate mode : Variable
Overall bit rate : 3 578 Kbps
ID : 0
Format : MPEG Video
Format version : Version 2
Format profile : Main@Main
Format settings, BVOP : Yes
Format settings, Matrix : Custom
Format settings, GOP : M=3, N=12
Codec ID : MPEG
Codec ID/Info : Chromatic MPEG 1 Video I Frame
Duration : 26mn 23s
Bit rate mode : Variable
Bit rate : 3 372 Kbps
Maximum bit rate : 5 000 Kbps
Width : 720 pixels
Height : 576 pixels
Display aspect ratio : 4:3
Frame rate : 25.000 fps
Standard : PAL
Color space : YUV
Chroma subsampling : 4:2:0
Bit depth : 8 bits
Scan type : Interlaced
Scan order : Top Field First
Compression mode : Lossy
Bits/(Pixel*Frame) : 0.325
Stream size : 637 MiB (94%)
ID : 1
Format : MPEG Audio
Format version : Version 1
Format profile : Layer 2
Codec ID : 50
Duration : 26mn 23s
Source duration : 26mn 23s
Bit rate mode : Constant
Bit rate : 192 Kbps
Channel(s) : 2 channels
Sampling rate : 48.0 KHz
Compression mode : Lossy
Stream size : 36.2 MiB (5%)
Alignment : Aligned on interleaves
Interleave, duration : 24 ms (0.60 video frame)


Display posts:    

Current time is: 22-Oct 16:33

All times are UTC + 3

You cannot post new topics in this forum
You cannot reply to topics in this forum
You cannot edit your posts in this forum
You cannot delete your posts in this forum
You cannot vote in polls in this forum
You cannot attach files in this forum
You cannot download files in this forum

The site does not give electronic versions of products, and is engaged only in a collecting and cataloguing of the references sent and published at a forum by our readers. If you are the legal owner of any submitted material and do not wish that the reference to it was in our catalogue, contact us and we shall immediately remove her. Files for an exchange on tracker are given by users of a site, and the administration does not bear the responsibility for their maintenance. The request to not fill in the files protected by copyrights, and also files of the illegal maintenance!