[ Сегодня идет свободное скачивание без начисления Download ]


Статистика раздачи
Нет
 
   
 
Top  
 
 
Встряска
05/05/2013 торрент обновлен, файл заменен на видео лучшего качества, битрейт 3300 против 2300
Жанр: экранизация, короткометражный
Год выпуска: 1970
Продолжительность: 00:26:24
Режиссёр: Юрий Мастюгин
В ролях: Дима Сосновский, Юрий Хамутянский, Анатолий Марчевский, Марк Перцовский, Георгий Светлани, Алексей Зайцев, Петр Репнин, Виктор Колпаков, А. Лёвушкин, Иван Рыжов
Описание: Телефильм по мотивам одноименного рассказа М.Горького.
О маленьком мальчике-подмастерьи иконописной мастерской, мечтавшем стать цирковым клоуном.
Доп. информация: Запись потока *.ts со спутника EUTELSAT, микширование в *.mpg программой VideoReDo.
Качество видео: DVB
Формат видео: MPEG-PS
Видео: MPEG Video, 720x576 (4:3), 25,000 кадров/сек, 3 372 Кбит/сек
Аудио: MPEG Audio, 48,0 КГц, 192 Кбит/сек, 2 канала

MediaInfo

General
Complete name : E:\Torrent\ВСТРЯСКА\ВСТРЯСКА.mpg
Format : AVI
Format/Info : Audio Video Interleave
File size : 676 MiB
Duration : 26mn 23s
Overall bit rate mode : Variable
Overall bit rate : 3 578 Kbps
Video
ID : 0
Format : MPEG Video
Format version : Version 2
Format profile : Main@Main
Format settings, BVOP : Yes
Format settings, Matrix : Custom
Format settings, GOP : M=3, N=12
Codec ID : MPEG
Codec ID/Info : Chromatic MPEG 1 Video I Frame
Duration : 26mn 23s
Bit rate mode : Variable
Bit rate : 3 372 Kbps
Maximum bit rate : 5 000 Kbps
Width : 720 pixels
Height : 576 pixels
Display aspect ratio : 4:3
Frame rate : 25.000 fps
Standard : PAL
Color space : YUV
Chroma subsampling : 4:2:0
Bit depth : 8 bits
Scan type : Interlaced
Scan order : Top Field First
Compression mode : Lossy
Bits/(Pixel*Frame) : 0.325
Stream size : 637 MiB (94%)
Audio
ID : 1
Format : MPEG Audio
Format version : Version 1
Format profile : Layer 2
Codec ID : 50
Duration : 26mn 23s
Source duration : 26mn 23s
Bit rate mode : Constant
Bit rate : 192 Kbps
Channel(s) : 2 channels
Sampling rate : 48.0 KHz
Compression mode : Lossy
Stream size : 36.2 MiB (5%)
Alignment : Aligned on interleaves
Interleave, duration : 24 ms (0.60 video frame)

[Цитировать]



Показать сообщения:    

Текущее время: 02-Дек 22:55

Часовой пояс: UTC + 3


Вы не можете начинать темы
Вы не можете отвечать на сообщения
Вы не можете редактировать свои сообщения
Вы не можете удалять свои сообщения
Вы не можете голосовать в опросах
Вы не можете прикреплять файлы к сообщениям
Вы не можете скачивать файлы

!ВНИМАНИЕ!
Сайт не предоставляет электронные версии произведений, а занимается лишь коллекционированием и каталогизацией ссылок, присылаемых и публикуемых на форуме нашими читателями. Если вы являетесь правообладателем какого-либо представленного материала и не желаете, чтобы ссылка на него находилась в нашем каталоге, свяжитесь с нами, и мы незамедлительно удалим ее. Файлы для обмена на трекере предоставлены пользователями сайта, и администрация не несет ответственности за их содержание. Просьба не заливать файлы, защищенные авторскими правами, а также файлы нелегального содержания!