[ Сегодня идет свободное скачивание без начисления Download ]


Статистика раздачи
Нет
 
   
 
Top  
 
 
Королевство кривых зеркал
Жанр: сказка
Год выпуска: 1963
Продолжительность: 01:14:57
Режиссёр: Александр Роу
В ролях: Оля и Таня Юкины (озвучание - Маргарита Корабельникова), Татьяна Барышева, Анатолий Кубацкий, Андрей Файт, Лидия Вертинская, Аркадий Цинман, Андрей Стапран, Иван Кузнецов, Георгий Милляр, Павел Павленко, Тамара Носова, Вера Алтайская, Александр Хвыля, Валентин Брылеев, Лидия Королева, Зоя Василькова, Андрей Алешин, Вячеслав Гостинский, Людмила Карауш, Валентина Куценко, Надежда Самсонова, Галина Шашкова, Михаил Щербаков, Людмила Сухова
Описание: Девочка Оля вечно не слушалась свою бабушку, капризничала, ленилась, но однажды взглянула в самое обычное зеркало, которое висело дома в прихожей, - и неожиданно отправилась путешествовать в волшебную зазеркальную страну вместе со своим отражением, озорной девочкой Яло. Обе они попадают в королевство кривых зеркал, где вообще нет обычных зеркал, потому что злые и нечестные правители этого королевства желают казаться лучше, чем они есть на самом деле...
Доп. информация:
Сценарий: Лев Аркадьев, Виталий Губарев
Операторы: Василий Дульцев, Леонид Акимов
Художники: Александр Вагичев, Арсений Клопотовский
Композитор: Аркадий Филиппенко
Текст песен: Виталий Губарев
Ограничения на просмотр: для любой зрительской аудитории

Чтобы помнили...

В роли Анидаг в этом фильме снялась Лидия Вертинская - жена шансонье Александра Вертинского и мать киноактрис Марианны и Анастасии Вертинских. Они познакомились в 1940 году в Шанхае - Александр Вертинский, трагический Пьеро, последний певец "серебряного века" и русского декаданса, и Лидия Циргвава, очаровательная юная девушка, дочь служащего КВЖД. Вертинский был старше своей возлюбленной на 34 года, но именно в это время, после двадцати лет странствий в эмиграции, он обрел настоящее человеческое счастье.
А вот судьбы исполнительниц главных ролей - близнецов Оли и Тани Юкиных - счастливыми не назовёшь. Стать актрисами им не позволила мать. Ольга скончалась 29 января 2005 года, Татьяна - 31 марта 2011. Говорят, что виной всему - алкоголь...
Качество видео: DVDRip
Формат видео: AVI
Видео: 704x528 (1.33:1), 25 fps, XviD 1.2.1, 2295 kbps avg, 0.25 bit/pixel
Аудио: 48 kHz, AC3 Dolby Digital, 3/2 (L,C,R,l,r) + LFE ch, 448.00 kbps avg

MediaInfo

Полное имя : Korolevstvo krivyh zerkal.avi
Формат : AVI
Формат/Информация : Audio Video Interleave
Размер файла : 1,44 Гбайт
Продолжительность : 1 ч. 14 м.
Общий поток : 2753 Кбит/сек
Программа кодирования : VirtualDubMod 1.5.10.3 (build 2550/release)
Библиотека кодирования : VirtualDubMod build 2550/release
Видео
Идентификатор : 0
Формат : MPEG-4 Visual
Профиль формата : Advanced Simple@L5
Параметр BVOP формата : 1
Параметр QPel формата : Нет
Параметр GMC формата : Без точки перехода
Параметр матрицы формата : Выборочная
Режим смешивания : Сжатый битовый поток
Идентификатор кодека : XVID
Идентификатор кодека/Подсказка : XviD
Продолжительность : 1 ч. 14 м.
Битрейт : 2295 Кбит/сек
Ширина : 704 пикселя
Высота : 528 пикселей
Соотношение сторон : 4:3
Частота кадров : 25,000 кадров/сек
Цветовое пространство : YUV
Субдискретизация насыщенности : 4:2:0
Битовая глубина : 8 бит
Тип развёртки : Прогрессивная
Метод сжатия : С потерями
Бит/(Пиксели*Кадры) : 0.247
Размер потока : 1,20 Гбайт (83%)
Библиотека кодирования : XviD 1.2.1 (UTC 2008-12-04)
Аудио
Идентификатор : 1
Формат : AC-3
Формат/Информация : Audio Coding 3
Расширение режима : CM (complete main)
Идентификатор кодека : 2000
Продолжительность : 1 ч. 14 м.
Вид битрейта : Постоянный
Битрейт : 448 Кбит/сек
Каналы : 6 каналов
Расположение каналов : Front: L C R, Side: L R, LFE
Частота : 48,0 КГц
Битовая глубина : 16 бит
Метод сжатия : С потерями
Задержка видео : 160 мс.
Размер потока : 240 Мбайт (16%)
Выравнивание : Разделение по промежуткам
Продолжительность промежутка : 40 мс. (1,00 видеокадр)
Время предзагрузки промежутка : 500 мс.

Скриншоты

[Цитировать]



Показать сообщения:    

Текущее время: 02-Дек 22:54

Часовой пояс: UTC + 3


Вы не можете начинать темы
Вы не можете отвечать на сообщения
Вы не можете редактировать свои сообщения
Вы не можете удалять свои сообщения
Вы не можете голосовать в опросах
Вы не можете прикреплять файлы к сообщениям
Вы не можете скачивать файлы

!ВНИМАНИЕ!
Сайт не предоставляет электронные версии произведений, а занимается лишь коллекционированием и каталогизацией ссылок, присылаемых и публикуемых на форуме нашими читателями. Если вы являетесь правообладателем какого-либо представленного материала и не желаете, чтобы ссылка на него находилась в нашем каталоге, свяжитесь с нами, и мы незамедлительно удалим ее. Файлы для обмена на трекере предоставлены пользователями сайта, и администрация не несет ответственности за их содержание. Просьба не заливать файлы, защищенные авторскими правами, а также файлы нелегального содержания!