[ Сегодня идет свободное скачивание без начисления Download ]


Статистика раздачи
Нет
 
   
 
Top  
 
 
-Автомобиль, скрипка и собака Клякса--Жанр: музыкальный, комедия
Год выпуска: 1974
Продолжительность: 01:36:00--Режиссер: Ролан Быков--В ролях:

Олег Анофриев (Аккордеон / Гитара), Ролан Быков (немая бабушка, скрипач), Георгий Вицин (Банджо / Гитара), Зиновий Гердт (Ударные / дедушка Давида), Николай Гринько (Контрабас / папа Олега), Михаил Козаков (Скрипка / Бас-гитара / Повар), Алексей Смирнов (Туба / Повар / Фердыщенко), Спартак Мишулин (Музыкант без инструмента / Таксист / Прохожий), Александр Чернявский (Кузя), Наталья Тенищева (Аня Хорошаева), Андрей Гусев (Олег Починкин), Цолак Вартазарян (Давид)
--Описание:В самую красивую девочку двора влюблены двое друзей - пятиклассников. Один из них - «технарь», мастер на все руки, другой - музыкант, скрипач.
Ветреная красавица демонстрирует свою благосклонность то одному, то другому... А ее маленький братик Кузя хочет всего - навсего много кошек, чтобы сделать из них обезьяну, потому что из обезьяны легко сделать медведя, потому что из медведя уже совсем просто сделать товарища...
--Дополнительная информация:-
-
-Семпл Рип совместим с бытовыми DVD-проигрывателями.--Качество видео: DVDRip (Исходник: )
Формат видео: AVI
Видео: XviD; 672x336 (1:2.00); 942 Kbps; 25 fps; 0,167 bpp
Аудио: MPEG-1 Audio layer 3; 48.0 KHz; 128 Kbps; CBR; 2 ch-
-

Mediainfo

General
Complete name : \Avtomobil_skripka_Klyaksa_(1974).DVDRip.XviD.mp3-All.Films.RG.avi
Format : AVI
Format/Info : Audio Video Interleave
File size : 742 MiB
Duration : 1h 36mn
Overall bit rate : 1 080 Kbps
Movie name : Автомобиль, скрипка и собака Клякса (1974) DVDRip [All.Films][RG]
Director : <VIRUS> [rutracker.org]
Writing application : VirtualDubMod 1.5.10.3 (build 2550/release)
Video
ID : 0
Format : MPEG-4 Visual
Format profile : Advanced Simple@L5
Format settings, BVOP : 2
Format settings, QPel : No
Format settings, GMC : No warppoints
Format settings, Matrix : Custom
Codec ID : XVID
Codec ID/Hint : XviD
Duration : 1h 36mn
Bit rate : 942 Kbps
Width : 672 pixels
Height : 336 pixels
Display aspect ratio : 2.000
Frame rate : 25.000 fps
Color space : YUV
Chroma subsampling : 4:2:0
Bit depth : 8 bits
Scan type : Progressive
Compression mode : Lossy
Bits/(Pixel*Frame) : 0.167
Stream size : 647 MiB (87%)
Writing library : XviD 65
Audio
ID : 1
Format : MPEG Audio
Format version : Version 1
Format profile : Layer 3
Codec ID : 55
Codec ID/Hint : MP3
Duration : 1h 36mn
Bit rate mode : Constant
Bit rate : 128 Kbps
Channel(s) : 2 channels
Sampling rate : 48.0 KHz
Compression mode : Lossy
Stream size : 87.9 MiB (12%)
Alignment : Aligned on interleaves
Interleave, duration : 40 ms (1.00 video frame)
Interleave, preload duration : 504 ms
Writing library : LAME3.99r
Encoding settings : -m s -V 4 -q 2 -lowpass 17 -b 128

Скриншоты


Сравнение

в оригинальном разрешении -> http://screenshotcomparison.com/comparison/129565
в большем, по горизонтали -> http://screenshotcomparison.com/comparison/129604
+ там не мод16, битрейт звука ниже допустимого (96 Кбит/с), Packed bitstream.

[Цитировать]



Показать сообщения:    

Текущее время: 30-Апр 22:41

Часовой пояс: UTC + 6


Вы не можете начинать темы
Вы не можете отвечать на сообщения
Вы не можете редактировать свои сообщения
Вы не можете удалять свои сообщения
Вы не можете голосовать в опросах
Вы не можете прикреплять файлы к сообщениям
Вы не можете скачивать файлы

!ВНИМАНИЕ!
Сайт не предоставляет электронные версии произведений, а занимается лишь коллекционированием и каталогизацией ссылок, присылаемых и публикуемых на форуме нашими читателями. Если вы являетесь правообладателем какого-либо представленного материала и не желаете, чтобы ссылка на него находилась в нашем каталоге, свяжитесь с нами, и мы незамедлительно удалим ее. Файлы для обмена на трекере предоставлены пользователями сайта, и администрация не несет ответственности за их содержание. Просьба не заливать файлы, защищенные авторскими правами, а также файлы нелегального содержания!