[ Today is free to download without increasing Download ]

DL-List and Torrent activity
Весенние перевертыши
26.04.14 торрент обновлен, запись трансляции ТК "НТВ+" заменена на запись трансляции ТК "Звезда". Преимущества - менее заметный логотип, битрейт видео 2 906 против 1701
Жанр: драма
Год выпуска: 1974
Продолжительность: 01:28:00
Режиссёр: Григорий Аронов
В ролях: Роман Мадянов, Лариса Малеванная, Николай Пеньков (II), Лев Дуров, Николай Гринько, Дима Зарубин, Виктор Краславский, Владимир Юрьев, Ольга Тюркина, Павел Батов
Описание: Дюшка Тягунов живет в небольшом поселке Куделино на северной реке. Прожил он на свете уже 13 лет и образцово-показательным мальчиком не был, учился кое-как, но этой весной мир стал играть с ним в перевертыши.
Доп. информация: Запись потока *.ts со спутника ABS-2, ремукс в *.mpg программой VideoReDo.
Качество видео: DVB
Формат видео: MPEG-PS
Видео: MPEG Video, 704(768)x576 (4:3), 25,000 кадров/сек,, 2 906 Кбит/сек
Аудио: MPEG Audio, 48,0 КГц, 192 Кбит/сек, 2 канала


Complete name : D:\MPG\Весенние перевертыши (Zvezda).mpg
Format : MPEG-PS
File size : 1.94 GiB
Duration : 1h 28mn
Overall bit rate mode : Variable
Overall bit rate : 3 161 Kbps
ID : 224 (0xE0)
Format : MPEG Video
Format version : Version 2
Format profile : Main@Main
Format settings, BVOP : No
Format settings, Matrix : Custom
Format settings, GOP : Variable
Duration : 1h 28mn
Bit rate mode : Variable
Bit rate : 2 906 Kbps
Maximum bit rate : 15.0 Mbps
Width : 704 pixels
Height : 576 pixels
Display aspect ratio : 4:3
Frame rate : 25.000 fps
Standard : PAL
Color space : YUV
Chroma subsampling : 4:2:0
Bit depth : 8 bits
Scan type : Interlaced
Scan order : Top Field First
Compression mode : Lossy
Bits/(Pixel*Frame) : 0.287
Time code of first frame : 00:00:00:00
Time code source : Group of pictures header
Stream size : 1.79 GiB (92%)
ID : 192 (0xC0)
Format : MPEG Audio
Format version : Version 1
Format profile : Layer 2
Duration : 1h 28mn
Bit rate mode : Constant
Bit rate : 192 Kbps
Channel count : 2 channels
Sampling rate : 48.0 KHz
Compression mode : Lossy
Delay relative to video : 14ms
Stream size : 121 MiB (6%)


Display posts:    

Current time is: 23-Oct 02:36

All times are UTC + 3

You cannot post new topics in this forum
You cannot reply to topics in this forum
You cannot edit your posts in this forum
You cannot delete your posts in this forum
You cannot vote in polls in this forum
You cannot attach files in this forum
You cannot download files in this forum

The site does not give electronic versions of products, and is engaged only in a collecting and cataloguing of the references sent and published at a forum by our readers. If you are the legal owner of any submitted material and do not wish that the reference to it was in our catalogue, contact us and we shall immediately remove her. Files for an exchange on tracker are given by users of a site, and the administration does not bear the responsibility for their maintenance. The request to not fill in the files protected by copyrights, and also files of the illegal maintenance!