[ Today is free to download without increasing Download ]

DL-List and Torrent activity
Маленькая история любви
Жанр: киноновелла, короткометражный
Год выпуска: 1981
Продолжительность: 00:09:51
Режиссёр: Ванцетти Даниелян
В ролях: Ашот Адамян, Азат Гаспарян, Анна Топчян, Артем Мартиросян
Описание: Двенадцатилетний мальчик влюблен в свою одноклассницу, а она восхищается молодым работником тира, умеющим метким выстрелом гасить свечи.
Доп. информация: Запись потока *.ts со спутника EUTELSAT, микширование в *.mpg программой VideoReDo.
Качество видео: DVB
Формат видео: MPEG-PS
Видео: MPEG Video, 720x576 (4:3), 25,000 кадров/сек, 3056 Кбит/сек
Аудио: MPEG Audio, 48,0 КГц, 192 Кбит/сек, 2 канала


Полное имя : E:\Torrent\Маленькая история любви\Маленькая история любви.mpg
Формат : MPEG-PS
Размер файла : 233 Мбайт
Продолжительность : 9 м. 50 с.
Режим общего битрейта : Переменный
Общий поток : 3314 Кбит/сек
Идентификатор : 224 (0xE0)
Формат : MPEG Video
Версия формата : Version 2
Профиль формата : Main@Main
Параметр BVOP формата : Да
Параметр матрицы формата : Выборочная
Продолжительность : 9 м. 50 с.
Вид битрейта : Переменный
Битрейт : 3056 Кбит/сек
Максимальный битрейт : 5000 Кбит/сек
Ширина : 720 пикселей
Высота : 576 пикселей
Соотношение сторон : 4:3
Частота кадров : 25,000 кадров/сек
Стандарт вещания : PAL
Цветовое пространство : YUV
Субдискретизация насыщенности : 4:2:0
Битовая глубина : 8 бит
Тип развёртки : Чересстрочная
Порядок развёртки : Верхнее поле первое
Метод сжатия : С потерями
Бит/(Пиксели*Кадры) : 0.295
Размер потока : 215 Мбайт (92%)
Идентификатор : 192 (0xC0)
Формат : MPEG Audio
Версия формата : Version 1
Профиль формата : Layer 2
Продолжительность : 9 м. 50 с.
Вид битрейта : Постоянный
Битрейт : 192 Кбит/сек
Каналы : 2 канала
Частота : 48,0 КГц
Метод сжатия : С потерями
Размер потока : 13,5 Мбайт (6%)


Display posts:    

Current time is: 25-Oct 15:02

All times are UTC + 3

You cannot post new topics in this forum
You cannot reply to topics in this forum
You cannot edit your posts in this forum
You cannot delete your posts in this forum
You cannot vote in polls in this forum
You cannot attach files in this forum
You cannot download files in this forum

The site does not give electronic versions of products, and is engaged only in a collecting and cataloguing of the references sent and published at a forum by our readers. If you are the legal owner of any submitted material and do not wish that the reference to it was in our catalogue, contact us and we shall immediately remove her. Files for an exchange on tracker are given by users of a site, and the administration does not bear the responsibility for their maintenance. The request to not fill in the files protected by copyrights, and also files of the illegal maintenance!