[ Сегодня идет свободное скачивание без начисления Download ]


Статистика раздачи
Нет
 
   
 
Top  
 
 
Сказка о царе Салтане
Жанр: сказка, экранизация
Год выпуска: 1966
Продолжительность: 01:21:39
Режиссёр: Александр Птушко
В ролях: Владимир Андреев, Лариса Голубкина, Олег Видов, Ксения Рябинкина, Сергей Мартинсон, Ольга Викландт, Вера Ивлева, Нина Беляева, Виктор Колпаков, Юрий Чекулаев, Валерий Носик, Григорий Шпигель, Евгений Майхровский, Яков Беленький, Александр Дегтярь, Артем Карапетян, Юрий Киреев, Григорий Михайлов, Михаил Орлов, Дмитрий Орловский, Гурген Тонунц, Владимир Ферапонтов, Борис Битюков, Сергей Голованов, Николай Бармин, Сарра Мокиль, Олег Мокшанцев, Виктор Уральский, Зоя Василькова, Павел Шальнов, Миша Молокоедов, Елена Вольская, Валентина Ананьина
Описание: В некотором царстве, в сказочном государстве жил-был неженатый царь Салтан. И вот как-то зимой пошел он прогуляться и дошел до дома, где "три девицы под окном пряли поздно вечерком". И стала одна из них царицей, потому как пообещала для батюшки-царя родить богатыря, а две ее сестры - ткачихой и поварихой. А потом много чего было: и любовь, и царский сын-богатырь, и клевета, и предательство, и чудеса, и множество волшебных приключений, и тридцать три богатыря, и красавица-царевна со звездой во лбу...
Доп. информация: По мотивам одноименной сказки А. С. Пушкина.
Сценарий: Александр Птушко (при участии Игоря Гелейна)
Операторы: Игорь Гелейн, Валентин Захаров, Николай Ренков
Художник: Анатолий Кузнецов
Композитор: Гавриил Попов
Ограничения на просмотр: для любой зрительской аудитории

Афиша

Качество видео: DVDRip
Формат видео: AVI
Видео: 704x320 (2.20:1), 25 fps, XviD 1.2.1, 2070 kbps avg, 0.37 bit/pixel
Аудио: 48 kHz, AC3 Dolby Digital, 3/2 (L,C,R,l,r) + LFE ch, 448.00 kbps avg

MediaInfo

Полное имя : Skazka o care Saltane.avi
Формат : AVI
Формат/Информация : Audio Video Interleave
Размер файла : 1,44 Гбайт
Продолжительность : 1 ч. 21 м.
Общий поток : 2528 Кбит/сек
Программа кодирования : VirtualDubMod 1.5.10.3 (build 2550/release)
Библиотека кодирования : VirtualDubMod build 2550/release
Видео
Идентификатор : 0
Формат : MPEG-4 Visual
Профиль формата : Advanced [email protected]
Параметр BVOP формата : 1
Параметр QPel формата : Нет
Параметр GMC формата : Без точки перехода
Параметр матрицы формата : Выборочная
Режим смешивания : Сжатый битовый поток
Идентификатор кодека : XVID
Идентификатор кодека/Подсказка : XviD
Продолжительность : 1 ч. 21 м.
Битрейт : 2070 Кбит/сек
Ширина : 704 пикселя
Высота : 320 пикселей
Соотношение сторон : 2,2:1
Частота кадров : 25,000 кадров/сек
Цветовое пространство : YUV
Субдискретизация насыщенности : 4:2:0
Битовая глубина : 8 бит
Тип развёртки : Прогрессивная
Метод сжатия : С потерями
Бит/(Пиксели*Кадры) : 0.368
Размер потока : 1,18 Гбайт (82%)
Библиотека кодирования : XviD 1.2.1 (UTC 2008-12-04)
Аудио
Идентификатор : 1
Формат : AC-3
Формат/Информация : Audio Coding 3
Расширение режима : CM (complete main)
Идентификатор кодека : 2000
Продолжительность : 1 ч. 21 м.
Вид битрейта : Постоянный
Битрейт : 448 Кбит/сек
Каналы : 6 каналов
Расположение каналов : Front: L C R, Side: L R, LFE
Частота : 48,0 КГц
Битовая глубина : 16 бит
Метод сжатия : С потерями
Задержка видео : 2 с. 402 мс.
Размер потока : 262 Мбайт (18%)
Выравнивание : Разделение по промежуткам
Продолжительность промежутка : 40 мс. (1,00 видеокадр)
Время предзагрузки промежутка : 500 мс.

Скриншоты

Подтверждение правильности выбранного AR

[Цитировать]



Показать сообщения:    

Текущее время: 04-Дек 11:15

Часовой пояс: UTC + 3


Вы не можете начинать темы
Вы не можете отвечать на сообщения
Вы не можете редактировать свои сообщения
Вы не можете удалять свои сообщения
Вы не можете голосовать в опросах
Вы не можете прикреплять файлы к сообщениям
Вы не можете скачивать файлы

!ВНИМАНИЕ!
Сайт не предоставляет электронные версии произведений, а занимается лишь коллекционированием и каталогизацией ссылок, присылаемых и публикуемых на форуме нашими читателями. Если вы являетесь правообладателем какого-либо представленного материала и не желаете, чтобы ссылка на него находилась в нашем каталоге, свяжитесь с нами, и мы незамедлительно удалим ее. Файлы для обмена на трекере предоставлены пользователями сайта, и администрация не несет ответственности за их содержание. Просьба не заливать файлы, защищенные авторскими правами, а также файлы нелегального содержания!