[ Сегодня идет свободное скачивание без начисления Download ]


Статистика раздачи
Нет
 
   
 
Top  
 
 
Русалочка
Никакой Голливуд не сравнится с нашими старыми фильмами...
- Страна: СССР, Болгария
Год выпуска: 1976
Жанр: Сказка, мюзикл, фэнтези, мелодрама, семейный
Продолжительность: 01:17:51
Режиссер: Владимир Бычков

В ролях: Вика Новикова, Валентин Никулин, Галина Артемова, Юрий Сенкевич, Галина Волчек, Стефан Илиев, Михаил Пуговкин, Светлана Моисеенко, Маргарита Чудинова, Стефан Пейчев, Михаил Янушкевич, Андрей Файт, Юлий Файт-Описание:
Картина посвящена памяти великого датского писателя Ганса Христиана Андерсена и создана по мотивам одной из лучших его сказок.
Маленькая Русалочка полюбила Принца, однажды спасенного ею во время шторма. Ради этой любви Русалочка пожертвовала многим: она не побоялась покинуть свой дом, вступила в сделку с колдуньей. Колдунья, используя различные магические заклятия в обмен на прекрасный голосок Русалочки, сотворила ей вместо рыбьего хвоста человеческие ноги и сделала так, чтобы Русалочка смогла ходить и жить на земле. Через все эти испытания прошла маленькая Русалочка только ради одного - быть рядом с любимым. Но принц, так и не понявший своего счастья, теряет ее навсегда…
- -Качество: Rip
Формат: AVI
Видео: 688x512 (1.34:1), 25 fps, XviD build 65 ~2219 kbps avg, 0.25 bit/pixel
Аудио: 48 kHz, AC3 Dolby Digital, 3/2 (L,C,R,l,r) + LFE ch, ~448 kbps

MediaInfo

Complete name                    : \Rusalochka.DVDRip.XviD.AC3_Olu6ka.aviFormat                           : AVIFormat/Info                      : Audio Video InterleaveFile size                        : 1.46 GiBDuration                         : 1h 17mnOverall bit rate                 : 2 678 KbpsMovie name                       : Rusalochka.DVDRip.XviD.AC3_Olu6kaWriting application              : FairUse Wizard - http://fairusewizard.com
VideoID : 0Format : MPEG-4 VisualFormat profile : Advanced Simple@L5Format settings, BVOP : YesFormat settings, QPel : NoFormat settings, GMC : No warppointsFormat settings, Matrix : CustomCodec ID : XVIDCodec ID/Hint : XviDDuration : 1h 17mnBit rate : 2 220 KbpsWidth : 688 pixelsHeight : 512 pixelsDisplay aspect ratio : 4:3Frame rate : 25.000 fpsColor space : YUVChroma subsampling : 4:2:0Bit depth : 8 bitsScan type : ProgressiveBits/(Pixel*Frame) : 0.252Stream size : 1.21 GiB (83%)Writing library : XviD 65
AudioID : 1Format : AC-3Format/Info : Audio Coding 3Mode extension : CM (complete main)Codec ID : 2000Duration : 1h 17mnBit rate mode : ConstantBit rate : 448 KbpsChannel(s) : 6 channelsChannel positions : Front: L C R, Side: L R, LFESampling rate : 48.0 KHzBit depth : 16 bitsVideo delay : 4s 680msStream size : 249 MiB (17%)Alignment : Split accross interleavesInterleave, duration : 40 ms (1.00 video frame)Interleave, preload duration : 500 ms

Скриншот с названием фильма

Дополнительно

(Исходник)
Авторы сценария: Виктор Виткович, Григорий Ягдфельд.
Оператор-постановщик: Эмиль Вагенштейн.
Художники-постановщики: Константин Загорский, Богоя Сапунджиев.
Композитор: Евгений Крылатов.
Текст песен: Бела Ахмадулина, Юрий Энтин.
Звукорежиссер: Борис Голев.-
Фильм получился очень искренним, прежде всего благодаря замечательному актерскому составу. Русалочку сыграла юная Вика Новикова, которая с тех пор больше не снималась. По информации с форумов, она художница, и сейчас живет во Франции. Галина Артемова и Юрий Сенкевич тоже впоследствии мало снимались. Галина Волчек и Валентин Никулин блестяще исполнили свои роли, без них фильм потерял бы половину своего очарования.
Действие с морем, замками, турнирами, волшебством разворачивается под чудную музыку Евгения Крылатова.
Во многом незаслуженно забытый, этот фильм - шедевр не только отечественного, но и мирового кино. Если в конце фильма вы будете рыдать, как ребенок - не стесняйтесь, это слезы от соприкосновения с настоящим искусством.

-
Спасибо Serj_ua_fr за группы

[Цитировать]



Показать сообщения:    

Текущее время: 25-Мар 17:33

Часовой пояс: UTC + 6


Вы не можете начинать темы
Вы не можете отвечать на сообщения
Вы не можете редактировать свои сообщения
Вы не можете удалять свои сообщения
Вы не можете голосовать в опросах
Вы не можете прикреплять файлы к сообщениям
Вы не можете скачивать файлы

!ВНИМАНИЕ!
Сайт не предоставляет электронные версии произведений, а занимается лишь коллекционированием и каталогизацией ссылок, присылаемых и публикуемых на форуме нашими читателями. Если вы являетесь правообладателем какого-либо представленного материала и не желаете, чтобы ссылка на него находилась в нашем каталоге, свяжитесь с нами, и мы незамедлительно удалим ее. Файлы для обмена на трекере предоставлены пользователями сайта, и администрация не несет ответственности за их содержание. Просьба не заливать файлы, защищенные авторскими правами, а также файлы нелегального содержания!