[ Сегодня идет свободное скачивание без начисления Download ]


Статистика раздачи
Нет
 
   
 
Top  
 
 
Гум-гам
«Я понял! Вы просто не хотите, чтобы я с вами играл в «надо»!»
-Жанр: детский, фантастика, семейный
Год выпуска: 1985
Продолжительность: 01:09:25
Режиссёр: Олег Ерышев
В ролях: Володя Митрофанов, Денис Зайцев, Илларион Найденко, Вика Бочарова, Иван Доррер, Никита Ерышев, Ксения Баландина, Михаил Боярский, Николай Иванов-Описание: У обычного ленинградского школьника появляется необыкновенный друг — мальчик по имени Гум-гам, житель волшебной планеты, чьё население (такие же мальчики и девочки, как и сам Гум-гам) не знает забот, проводя время в играх и различных увеселениях. Новый друг способен исполнить любое желание, о каком его только ни попросят. Взамен он просит совсем немного — дружить с ним и ни о чём не спрашивать…- -Качество видео: SATRip
Формат видео: AVI
Видео: 640x480 (1.33:1), 25 fps, XviD build 65 ~1360 kbps avg, 0.18 bit/pixel
Аудио: 48 kHz, MPEG Layer 3, 2 ch, ~128.00 kbps avg

MediaInfo

Complete name                    : \Gum-gam.SATRip.XviD.MP3_Olu6ka.aviFormat                           : AVIFormat/Info                      : Audio Video InterleaveFile size                        : 744 MiBDuration                         : 1h 9mnOverall bit rate                 : 1 498 KbpsMovie name                       : Гум гамWriting application              : VirtualDubMod 1.5.10.3 | (build 2550/release)Copyright                        : Olu6ka
VideoID : 0Format : MPEG-4 VisualFormat profile : Advanced [email protected] settings, BVOP : YesFormat settings, QPel : NoFormat settings, GMC : No warppointsFormat settings, Matrix : CustomCodec ID : XVIDCodec ID/Hint : XviDDuration : 1h 9mnBit rate : 1 361 KbpsWidth : 640 pixelsHeight : 480 pixelsDisplay aspect ratio : 4:3Frame rate : 25.000 fpsColor space : YUVChroma subsampling : 4:2:0Bit depth : 8 bitsScan type : ProgressiveBits/(Pixel*Frame) : 0.177Stream size : 676 MiB (91%)Writing library : XviD 65
AudioID : 1Format : MPEG AudioFormat version : Version 1Format profile : Layer 3Codec ID : 55Codec ID/Hint : MP3Duration : 1h 9mnBit rate mode : ConstantBit rate : 128 KbpsChannel(s) : 2 channelsSampling rate : 48.0 KHzStream size : 63.6 MiB (9%)Alignment : Aligned on interleavesInterleave, duration : 40 ms (1.00 video frame)Interleave, preload duration : 504 ms

Скриншот c названием фильма

Скриншоты

Экранизация изданной в 1970 году одноимённой фантастической повести Евгения Велтистова о невероятных приключениях третьеклассника Максима и его друга — инопланетянина Гум-Гама.
Спасибо за группы

[Цитировать]



Показать сообщения:    

Текущее время: 04-Дек 07:03

Часовой пояс: UTC + 3


Вы не можете начинать темы
Вы не можете отвечать на сообщения
Вы не можете редактировать свои сообщения
Вы не можете удалять свои сообщения
Вы не можете голосовать в опросах
Вы не можете прикреплять файлы к сообщениям
Вы не можете скачивать файлы

!ВНИМАНИЕ!
Сайт не предоставляет электронные версии произведений, а занимается лишь коллекционированием и каталогизацией ссылок, присылаемых и публикуемых на форуме нашими читателями. Если вы являетесь правообладателем какого-либо представленного материала и не желаете, чтобы ссылка на него находилась в нашем каталоге, свяжитесь с нами, и мы незамедлительно удалим ее. Файлы для обмена на трекере предоставлены пользователями сайта, и администрация не несет ответственности за их содержание. Просьба не заливать файлы, защищенные авторскими правами, а также файлы нелегального содержания!