[ Сегодня идет свободное скачивание без начисления Download ]


Статистика раздачи
Нет
 
   
 
Top  
 
 
Солёный пёс
Год выпуска: 1973
Жанр: приключения, фильм о животных
Продолжительность: 01:09:27
Режиссер: Николай Кошелев
В ролях:
Владимир Меньшов
Татьяна Шестакова
Николай Лавров
Витаутас Паукште
Виктор Перевалов
Надежда Жилинская
Борис Аракелов
Николай Кузьмин
Тамара Уржумова
Игорь Шибанов
Юра Поволоцкий
Алексей Лазовский
Рудольф Мухин
Александр Павловский
Ирина Гойер
Зиновий Гердт (текст от автора)
Описание:
На одном из островов одного из тёплых морей ощенилась приблудная дворняжка. Суровый хозяин ликвидировал собаку и щенят. Но один из щенков, не замеченный человеком, чудом уцелел. Рыжий щенок отважно переплыл залив и оказался в многолюдном городе. Так как он был один на белом свете, то ему было всё равно, за кем пойти. И он пошёл за первым человеком, сказавшим ему доброе слово. А человеком этим оказался матрос Мартьянов с русского судна «Алексей Толстой»…
Доп. информация:

Качество видео: TVRip, исходник -
Формат видео: AVI
Видео: 688x528 (1.30:1), 25 fps, XviD build 65 ~1970 kbps avg, 0.22 bit/pixel
Аудио: 48 kHz, AC3 Dolby Digital, 2/0 (L,R) ch, ~256 kbps
Семпл

Сравнения

Сравнение для информации с - здесь - совершенно разные копии

MediaInfo

Общее
Полное имя : D:\Torrent\Солёный пёс_1.09\Солёный пёс_1.09.avi
Формат : AVI
Формат/Информация : Audio Video Interleave
Размер файла : 1,09 Гбайт
Продолжительность : 1 ч. 9 м.
Общий поток : 2236 Кбит/сек
Программа кодирования : VirtualDubMod 1.5.10.3 | www.virtualdub-fr.org || (build 2550/release)
Библиотека кодирования : VirtualDubMod build 2550/release
Видео
Идентификатор : 0
Формат : MPEG-4 Visual
Профиль формата : Advanced Simple@L5
Параметр BVOP формата : 1
Параметр QPel формата : Нет
Параметр GMC формата : Без точки перехода
Параметр матрицы формата : Выборочная
Идентификатор кодека : XVID
Идентификатор кодека/Подсказка : XviD
Продолжительность : 1 ч. 9 м.
Битрейт : 1971 Кбит/сек
Ширина : 688 пикселей
Высота : 528 пикселей
Соотношение сторон : 4:3
Частота кадров : 25,000 кадров/сек
Цветовое пространство : YUV
Субдискретизация насыщенности : 4:2:0
Битовая глубина : 8 бит
Тип развёртки : Прогрессивная
Метод сжатия : С потерями
Бит/(Пиксели*Кадры) : 0.217
Размер потока : 979 Мбайт (88%)
Библиотека кодирования : XviD 65
Аудио
Идентификатор : 1
Формат : AC-3
Формат/Информация : Audio Coding 3
Расширение режима : CM (complete main)
Параметр Endianness формата : Big
Идентификатор кодека : 2000
Продолжительность : 1 ч. 9 м.
Вид битрейта : Постоянный
Битрейт : 256 Кбит/сек
Каналы : 2 канала
Расположение каналов : Front: L R
Частота : 48,0 КГц
Битовая глубина : 16 бит
Метод сжатия : С потерями
Размер потока : 127 Мбайт (11%)
Выравнивание : Разделение по промежуткам
Продолжительность промежутка : 40 мс. (1,00 видеокадр)
Время предзагрузки промежутка : 500 мс.

Скриншоты

[Цитировать]



Показать сообщения:    

Текущее время: 11-Дек 12:58

Часовой пояс: UTC + 3


Вы не можете начинать темы
Вы не можете отвечать на сообщения
Вы не можете редактировать свои сообщения
Вы не можете удалять свои сообщения
Вы не можете голосовать в опросах
Вы не можете прикреплять файлы к сообщениям
Вы не можете скачивать файлы

!ВНИМАНИЕ!
Сайт не предоставляет электронные версии произведений, а занимается лишь коллекционированием и каталогизацией ссылок, присылаемых и публикуемых на форуме нашими читателями. Если вы являетесь правообладателем какого-либо представленного материала и не желаете, чтобы ссылка на него находилась в нашем каталоге, свяжитесь с нами, и мы незамедлительно удалим ее. Файлы для обмена на трекере предоставлены пользователями сайта, и администрация не несет ответственности за их содержание. Просьба не заливать файлы, защищенные авторскими правами, а также файлы нелегального содержания!