[ Сегодня идет свободное скачивание без начисления Download ]


Статистика раздачи
Нет
 
   
 
Top  
 
 
Домино
Жанр: мелодрама, фильм о животных
Год выпуска: 1973
Продолжительность: 00:53:39
Режиссёр: Игорь Негреску
В ролях: Станислав Грандо, А. Додога, Сергей Маслобойщиков, Ю. Коваленко, Вячеслав Воронин, Анатолий Юрченко, Анна Зайцева
Описание: История чернобурого лиса по имени Домино.
Доп. информация: По мотивам повести Э.Сетон-Томпсона. Раритет. Картинка, конечно, ужасная, но какая есть. Если кто-нибудь знает, где достать этот фильм в лучшем качестве, просьба сообщить в ЛС.
Качество видео: VHSRip
Формат видео: AVI
Видео: 512х384 (4:3), DivX, 25 fps, 1291 Kbps
Аудио: MP3, 256 Kbps, 2 ch, 44.1 KHz

MediaInfo

General
Complete name : D:\Домино.avi
Format : AVI
Format/Info : Audio Video Interleave
File size : 599 MiB
Duration : 53mn 39s
Overall bit rate : 1 560 Kbps
Writing application : Nandub v2.01 The advanced compression technology is developed by Neiromaster
Writing library : Boilsoft AVI tool build 1/release
Video #0
ID : 0
Format : MPEG-4 Visual
Format settings, BVOP : Yes
Format settings, QPel : No
Format settings, GMC : No warppoints
Format settings, Matrix : Default (H.263)
Codec ID : DIVX
Codec ID/Info : Project Mayo
Codec ID/Hint : DivX 4
Duration : 53mn 39s
Bit rate : 1 291 Kbps
Width : 512 pixels
Height : 384 pixels
Display aspect ratio : 4:3
Frame rate : 25.000 fps
Color space : YUV
Chroma subsampling : 4:2:0
Bit depth : 8 bits
Scan type : Progressive
Compression mode : Lossy
Bits/(Pixel*Frame) : 0.263
Stream size : 496 MiB (83%)
Audio #1
ID : 1
Format : MPEG Audio
Format version : Version 1
Format profile : Layer 3
Codec ID : 55
Codec ID/Hint : MP3
Duration : 53mn 39s
Bit rate mode : Constant
Bit rate : 256 Kbps
Channel(s) : 2 channels
Sampling rate : 44.1 KHz
Compression mode : Lossy
Stream size : 98.3 MiB (16%)
Alignment : Aligned on interleaves
Interleave, duration : 26 ms (0.65 video frame)
Interleave, preload duration : 522 ms

Скриншоты

[Цитировать]



Показать сообщения:    

Текущее время: 11-Дек 01:28

Часовой пояс: UTC + 3


Вы не можете начинать темы
Вы не можете отвечать на сообщения
Вы не можете редактировать свои сообщения
Вы не можете удалять свои сообщения
Вы не можете голосовать в опросах
Вы не можете прикреплять файлы к сообщениям
Вы не можете скачивать файлы

!ВНИМАНИЕ!
Сайт не предоставляет электронные версии произведений, а занимается лишь коллекционированием и каталогизацией ссылок, присылаемых и публикуемых на форуме нашими читателями. Если вы являетесь правообладателем какого-либо представленного материала и не желаете, чтобы ссылка на него находилась в нашем каталоге, свяжитесь с нами, и мы незамедлительно удалим ее. Файлы для обмена на трекере предоставлены пользователями сайта, и администрация не несет ответственности за их содержание. Просьба не заливать файлы, защищенные авторскими правами, а также файлы нелегального содержания!