[ Today is free to download without increasing Download ]

DL-List and Torrent activity
Жанр: мелодрама, фильм о животных
Год выпуска: 1973
Продолжительность: 00:53:39
Режиссёр: Игорь Негреску
В ролях: Станислав Грандо, А. Додога, Сергей Маслобойщиков, Ю. Коваленко, Вячеслав Воронин, Анатолий Юрченко, Анна Зайцева
Описание: История чернобурого лиса по имени Домино.
Доп. информация: По мотивам повести Э.Сетон-Томпсона. Раритет. Картинка, конечно, ужасная, но какая есть. Если кто-нибудь знает, где достать этот фильм в лучшем качестве, просьба сообщить в ЛС.
Качество видео: VHSRip
Формат видео: AVI
Видео: 512х384 (4:3), DivX, 25 fps, 1291 Kbps
Аудио: MP3, 256 Kbps, 2 ch, 44.1 KHz


Complete name : D:\Домино.avi
Format : AVI
Format/Info : Audio Video Interleave
File size : 599 MiB
Duration : 53mn 39s
Overall bit rate : 1 560 Kbps
Writing application : Nandub v2.01 The advanced compression technology is developed by Neiromaster
Writing library : Boilsoft AVI tool build 1/release
Video #0
ID : 0
Format : MPEG-4 Visual
Format settings, BVOP : Yes
Format settings, QPel : No
Format settings, GMC : No warppoints
Format settings, Matrix : Default (H.263)
Codec ID : DIVX
Codec ID/Info : Project Mayo
Codec ID/Hint : DivX 4
Duration : 53mn 39s
Bit rate : 1 291 Kbps
Width : 512 pixels
Height : 384 pixels
Display aspect ratio : 4:3
Frame rate : 25.000 fps
Color space : YUV
Chroma subsampling : 4:2:0
Bit depth : 8 bits
Scan type : Progressive
Compression mode : Lossy
Bits/(Pixel*Frame) : 0.263
Stream size : 496 MiB (83%)
Audio #1
ID : 1
Format : MPEG Audio
Format version : Version 1
Format profile : Layer 3
Codec ID : 55
Codec ID/Hint : MP3
Duration : 53mn 39s
Bit rate mode : Constant
Bit rate : 256 Kbps
Channel(s) : 2 channels
Sampling rate : 44.1 KHz
Compression mode : Lossy
Stream size : 98.3 MiB (16%)
Alignment : Aligned on interleaves
Interleave, duration : 26 ms (0.65 video frame)
Interleave, preload duration : 522 ms



Display posts:    

Current time is: 23-Oct 02:35

All times are UTC + 3

You cannot post new topics in this forum
You cannot reply to topics in this forum
You cannot edit your posts in this forum
You cannot delete your posts in this forum
You cannot vote in polls in this forum
You cannot attach files in this forum
You cannot download files in this forum

The site does not give electronic versions of products, and is engaged only in a collecting and cataloguing of the references sent and published at a forum by our readers. If you are the legal owner of any submitted material and do not wish that the reference to it was in our catalogue, contact us and we shall immediately remove her. Files for an exchange on tracker are given by users of a site, and the administration does not bear the responsibility for their maintenance. The request to not fill in the files protected by copyrights, and also files of the illegal maintenance!