[ Сегодня идет свободное скачивание без начисления Download ]


Статистика раздачи
Нет
 
   
 
Top  
 
 
Жизнь и приключения четырех друзей (4 серии)
Жанр: приключения, комедия
Год выпуска: 1980-1981
Продолжительность: 00:33:25 + 00:29:17 + 00:30:25 + 00:29:05
Режиссёр: Олег Ерышев
В ролях: Катя Кишмерешкина, Андрей Хилько, Ефим Каменецкий, Петр Шелохонов, Владимир Бобин, Никита Ерышев, Люда Дмитриева, Алексей Колобов, Валерий Быченков, М. Суздалова, Валерий Исаев, Анатолий Дубанов, Лев Лемке, Вера Титова, Борис Соколов, Владимир Особик, Михаил Матвеев, Татьяна Самарина, Наталья Попова, Михаил Светин, Евгений Тиличеев, Сергей Иванов, Александра Ислентьева, Антон Гранат, Лев Лемке (озвучание - мысли животных)
Описание: Удивительные похождения четырех друзей: трех собак - овчарки Фрамы, эрделя Бубрика, дворняги Тошки - и кота Светофора. Хозяин овчарки Фрама и эрделя Бубрика уезжает в командировку на Север. Двум друзьям-псам приходится переехать на время к дворняжке Тошке и коту Светофору, которые не очень любезно принимают вначале гостей. Но вскоре все четверо становятся друзьями...

Доп. информация: Продукт совместного творчества. Запись первых двух серий (трансляция телеканала "Бибигон") любезно предоставил из своей коллекции коллега Третья и четвертая серии записаны мной с "ТВЦ". Телеканалы транслировали разные копии, у "ТВЦ" кадр полнее и отсутствуют титры в конце фильма.
Качество видео: DVB
Формат видео: MPEG-PS
Видео:
1 и 2 серии - MPEG Video, 720x576 (4 : 3), 25,000 кадров/сек, 5988 Кбит/сек
3 серия - MPEG Video, 704x576 (4 : 3), 25,000 кадров/сек, 2705 Кбит/сек
4 серия - MPEG Video, 704x576 (4 : 3), 25,000 кадров/сек, 3338 Кбит/сек
Аудио:
1 и 2 серии - MPEG Audio, 48,0 КГц, 256 Кбит/сек, 2 канала
3 и 4 серии - MPEG Audio, 48,0 КГц, 192 Кбит/сек, 2 канала

MediaInfo

Общее
Полное имя : E:\Torrent\Жизнь и приключения четырех друзей\1 Закадычные враги закадычные друзья.mpg
Формат : MPEG-PS
Размер файла : 1,49 Гбайт
Продолжительность : 33 м.
Режим общего битрейта : Переменный
Общий поток : 6371 Кбит/сек
Видео
Идентификатор : 224 (0xE0)
Формат : MPEG Video
Версия формата : Version 2
Профиль формата : Main@Main
Параметр BVOP формата : Да
Параметр матрицы формата : Выборочная
Продолжительность : 33 м.
Вид битрейта : Переменный
Битрейт : 5988 Кбит/сек
Максимальный битрейт : 8000 Кбит/сек
Ширина : 720 пикселей
Высота : 576 пикселей
Соотношение сторон : 4:3
Частота кадров : 25,000 кадров/сек
Стандарт вещания : PAL
Цветовое пространство : YUV
Субдискретизация насыщенности : 4:2:0
Битовая глубина : 8 бит
Тип развёртки : Чересстрочная
Порядок развёртки : Верхнее поле первое
Метод сжатия : С потерями
Бит/(Пиксели*Кадры) : 0.578
Размер потока : 1,40 Гбайт (94%)
Аудио
Идентификатор : 192 (0xC0)
Формат : MPEG Audio
Версия формата : Version 1
Профиль формата : Layer 2
Продолжительность : 33 м.
Вид битрейта : Постоянный
Битрейт : 256 Кбит/сек
Каналы : 2 канала
Частота : 48,0 КГц
Метод сжатия : С потерями
Размер потока : 61,2 Мбайт (4%)
Общее
Полное имя : E:\Torrent\Жизнь и приключения четырех друзей\2 Начало пути.mpg
Формат : MPEG-PS
Размер файла : 1,30 Гбайт
Продолжительность : 29 м.
Режим общего битрейта : Переменный
Общий поток : 6370 Кбит/сек
Видео
Идентификатор : 224 (0xE0)
Формат : MPEG Video
Версия формата : Version 2
Профиль формата : Main@Main
Параметр BVOP формата : Да
Параметр матрицы формата : Выборочная
Продолжительность : 29 м.
Вид битрейта : Переменный
Битрейт : 5988 Кбит/сек
Максимальный битрейт : 8000 Кбит/сек
Ширина : 720 пикселей
Высота : 576 пикселей
Соотношение сторон : 4:3
Частота кадров : 25,000 кадров/сек
Стандарт вещания : PAL
Цветовое пространство : YUV
Субдискретизация насыщенности : 4:2:0
Битовая глубина : 8 бит
Тип развёртки : Чересстрочная
Порядок развёртки : Верхнее поле первое
Метод сжатия : С потерями
Бит/(Пиксели*Кадры) : 0.578
Размер потока : 1,22 Гбайт (94%)
Аудио
Идентификатор : 192 (0xC0)
Формат : MPEG Audio
Версия формата : Version 1
Профиль формата : Layer 2
Продолжительность : 29 м.
Вид битрейта : Постоянный
Битрейт : 256 Кбит/сек
Каналы : 2 канала
Частота : 48,0 КГц
Метод сжатия : С потерями
Размер потока : 53,5 Мбайт (4%)
Общее
Полное имя : E:\Torrent\Жизнь и приключения четырех друзей\3 Игра с огнем.mpg
Формат : MPEG-PS
Размер файла : 646 Мбайт
Продолжительность : 30 м.
Режим общего битрейта : Переменный
Общий поток : 2956 Кбит/сек
Видео
Идентификатор : 224 (0xE0)
Формат : MPEG Video
Версия формата : Version 2
Профиль формата : Main@Main
Параметр BVOP формата : Да
Параметр матрицы формата : Выборочная
Продолжительность : 30 м.
Вид битрейта : Переменный
Битрейт : 2705 Кбит/сек
Максимальный битрейт : 15,0 Мбит/сек
Ширина : 704 пикселя
Высота : 576 пикселей
Соотношение сторон : 4:3
Частота кадров : 25,000 кадров/сек
Стандарт вещания : PAL
Цветовое пространство : YUV
Субдискретизация насыщенности : 4:2:0
Битовая глубина : 8 бит
Метод сжатия : С потерями
Бит/(Пиксели*Кадры) : 0.267
Размер потока : 591 Мбайт (92%)
Аудио
Идентификатор : 192 (0xC0)
Формат : MPEG Audio
Версия формата : Version 1
Профиль формата : Layer 2
Продолжительность : 30 м.
Вид битрейта : Постоянный
Битрейт : 192 Кбит/сек
Каналы : 2 канала
Частота : 48,0 КГц
Метод сжатия : С потерями
Размер потока : 42,0 Мбайт (6%)
Общее
Полное имя : E:\Torrent\Жизнь и приключения четырех друзей\4 Кот в мешке.mpg
Формат : MPEG-PS
Размер файла : 753 Мбайт
Продолжительность : 29 м.
Режим общего битрейта : Переменный
Общий поток : 3601 Кбит/сек
Видео
Идентификатор : 224 (0xE0)
Формат : MPEG Video
Версия формата : Version 2
Профиль формата : Main@Main
Параметр BVOP формата : Да
Параметр матрицы формата : Выборочная
Параметр GOP формата : M=1, N=20
Продолжительность : 29 м.
Вид битрейта : Переменный
Битрейт : 3338 Кбит/сек
Максимальный битрейт : 15,0 Мбит/сек
Ширина : 704 пикселя
Высота : 576 пикселей
Соотношение сторон : 4:3
Частота кадров : 25,000 кадров/сек
Стандарт вещания : PAL
Цветовое пространство : YUV
Субдискретизация насыщенности : 4:2:0
Битовая глубина : 8 бит
Тип развёртки : Чересстрочная
Порядок развёртки : Верхнее поле первое
Метод сжатия : С потерями
Бит/(Пиксели*Кадры) : 0.329
Размер потока : 698 Мбайт (93%)
Аудио
Идентификатор : 192 (0xC0)
Формат : MPEG Audio
Версия формата : Version 1
Профиль формата : Layer 2
Продолжительность : 29 м.
Вид битрейта : Постоянный
Битрейт : 192 Кбит/сек
Каналы : 2 канала
Частота : 48,0 КГц
Метод сжатия : С потерями
Размер потока : 40,1 Мбайт (5%)

Скриншоты 1-2 серий

Скриншоты 3-4 серий

[Цитировать]



Показать сообщения:    

Текущее время: 09-Дек 08:55

Часовой пояс: UTC + 3


Вы не можете начинать темы
Вы не можете отвечать на сообщения
Вы не можете редактировать свои сообщения
Вы не можете удалять свои сообщения
Вы не можете голосовать в опросах
Вы не можете прикреплять файлы к сообщениям
Вы не можете скачивать файлы

!ВНИМАНИЕ!
Сайт не предоставляет электронные версии произведений, а занимается лишь коллекционированием и каталогизацией ссылок, присылаемых и публикуемых на форуме нашими читателями. Если вы являетесь правообладателем какого-либо представленного материала и не желаете, чтобы ссылка на него находилась в нашем каталоге, свяжитесь с нами, и мы незамедлительно удалим ее. Файлы для обмена на трекере предоставлены пользователями сайта, и администрация не несет ответственности за их содержание. Просьба не заливать файлы, защищенные авторскими правами, а также файлы нелегального содержания!