[ Сегодня идет свободное скачивание без начисления Download ]


Статистика раздачи
Скачал: [ 1 ]
 
   
 
Top  
 
 
Конёк-горбунок
Жанр: сказка
Год выпуска: 1941
Продолжительность: 01:16:00
Режиссёр: Александр Роу
В ролях: Пётр Алейников, Марина Ковалёва, Вениамин Гут, Георгий Милляр, Лев Потёмкин, Н. Урусова, Михаил Трояновский, Александр Жуков, Николай Горлов, Александр Тимонтаев, Тарас Алейников
Описание: Великолепный детский фильм, поставленный по мотивам всеми любимой сказки П. Ершова. В тридесятом царстве жил-был царь. И задумал тот царь взять в жены девушку-красу. А чтобы заполучить ее, послал за ней Иванушку, крестьянского сына. А если не выполнит Иван царского задания, не сносить тогда ему головы. Тут-то и пришел на помощь к Иванушке сказочный конёк-горбунок…
Исходник:
Качество видео: DVDRip
Формат видео: AVI
Видео: 544x416 (1.30:1) XviD 1.2.1, 25 fps, 1233 kbps,0.22 bit/pixel
Аудио: MP3 48000 Hz stereo 128 kbps

MediaInfo

General
Complete name : C:\Users\samsung\Videos\Конек- Горбунок DVDRip_1941.avi
Format : AVI
Format/Info : Audio Video Interleave
File size : 745 MiB
Duration : 1h 16mn
Overall bit rate : 1 371 Kbps
Writing application : VirtualDubMod 1.5.10.2 (build 2540/release)
Writing library : VirtualDubMod build 2540/release
Video
ID : 0
Format : MPEG-4 Visual
Format profile : Advanced Simple@L5
Format settings, BVOP : Yes
Format settings, QPel : No
Format settings, GMC : No warppoints
Format settings, Matrix : Custom
Codec ID : XVID
Codec ID/Hint : XviD
Duration : 1h 16mn
Bit rate : 1 233 Kbps
Width : 544 pixels
Height : 416 pixels
Display aspect ratio : 4:3
Frame rate : 25.000 fps
Color space : YUV
Chroma subsampling : 4:2:0
Bit depth : 8 bits
Scan type : Progressive
Bits/(Pixel*Frame) : 0.218
Stream size : 670 MiB (90%)
Writing library : XviD 1.2.1 (UTC 2008-12-04)
Audio
ID : 1
Format : MPEG Audio
Format version : Version 1
Format profile : Layer 3
Codec ID : 55
Codec ID/Hint : MP3
Duration : 1h 16mn
Bit rate mode : Constant
Bit rate : 128 Kbps
Channel(s) : 2 channels
Sampling rate : 48.0 KHz
Stream size : 69.6 MiB (9%)
Alignment : Aligned on interleaves
Interleave, duration : 40 ms (1.00 video frame)
Interleave, preload duration : 504 ms
Writing library : LAME3.98r
Encoding settings : -m s -V 4 -q 2 -lowpass 17 -b 128

Скриншоты

[Цитировать]



Показать сообщения:    

Текущее время: 08-Дек 01:21

Часовой пояс: UTC + 3


Вы не можете начинать темы
Вы не можете отвечать на сообщения
Вы не можете редактировать свои сообщения
Вы не можете удалять свои сообщения
Вы не можете голосовать в опросах
Вы не можете прикреплять файлы к сообщениям
Вы не можете скачивать файлы

!ВНИМАНИЕ!
Сайт не предоставляет электронные версии произведений, а занимается лишь коллекционированием и каталогизацией ссылок, присылаемых и публикуемых на форуме нашими читателями. Если вы являетесь правообладателем какого-либо представленного материала и не желаете, чтобы ссылка на него находилась в нашем каталоге, свяжитесь с нами, и мы незамедлительно удалим ее. Файлы для обмена на трекере предоставлены пользователями сайта, и администрация не несет ответственности за их содержание. Просьба не заливать файлы, защищенные авторскими правами, а также файлы нелегального содержания!