[ Сегодня идет свободное скачивание без начисления Download ]


Статистика раздачи
Нет
 
   
 
Top  
 
 
Шкатулка из крепости / Шкатулка Исмаил Бека
Жанр: приключения
Год выпуска: 1982
Продолжительность: 01:11:45
Язык: русский (профессиональный дублированный)
Режиссёр: Гюльбаниз Азимзаде
В ролях: Кямран Шахмарданов, Ульви Сафаров, Самира Караева, Микаил Керимов, Ибрагим Алиев, Гасан (Гасанага) Турабов, Рахиб Сафаралиев, Агаали Алиев, Фахраддин Манафов, Тофик Таги-Заде, Рухсара Агаева, Сона Микаилова, Шукюфа Юсупова
Описание: Два неразлучных школьных друга Мансур и Энвер мечтали найти клад. Однажды им крупно повезло — в полуразрушенной крепости они, наконец, обнаружили шкатулку с драгоценностями. Но завладели шкатулкой наблюдавшие за ребятами преступники...
Доп. информация: Фильм поставлен по фактам, происшедшим в Баку. Думаю, многие помнят этот фильм по двум эпизодам. Первый, когда девочка надела старинные украшения и отправилась гулять по городу, ее увидела какая-то старуха и отобрала украшения. Второй, когда преступник привязал мальчика к катеру, и катер стал тонуть.
Видео найдено в сети, качество ужасное. Есть две версии - с русской озвучкой и с азербайджанской. Я взял видео с азербайджанской версии, которое получше, и постарался прилепить туда русскую озвучку. Абсолютной точности достичь не получилось, кто хочет - может попробовать улучшить.
Семпл: http://multi-up.com/736208
Качество видео: TVRip
Формат видео: AVI
Видео: 640х288, XviD, 25 fps, 378 Kbps
Аудио: MP3, 44.1 KHz, 160 Kbps, 2 ch

MediaInfo

Format : AVI
Format/Info : Audio Video Interleave
File size : 281 MiB
Duration : 1h 11mn
Overall bit rate : 548 Kbps
Writing application : VirtualDubMod 1.5.10.2 (build 2540/release)
Writing library : VirtualDubMod build 2540/release
Video
ID : 0
Format : xvid
Codec ID : xvid
Duration : 1h 11mn
Bit rate : 378 Kbps
Width : 640 pixels
Height : 288 pixels
Display aspect ratio : 2.222
Frame rate : 25.000 fps
Bits/(Pixel*Frame) : 0.082
Stream size : 194 MiB (69%)
Audio
ID : 1
Format : MPEG Audio
Format version : Version 1
Format profile : Layer 3
Codec ID : 55
Codec ID/Hint : MP3
Duration : 1h 11mn
Bit rate mode : Constant
Bit rate : 160 Kbps
Channel(s) : 2 channels
Sampling rate : 44.1 KHz
Stream size : 82.1 MiB (29%)
Alignment : Split accross interleaves
Interleave, duration : 40 ms (1.00 video frame)
Interleave, preload duration : 500 ms

Скриншоты

[Цитировать]



Показать сообщения:    

Текущее время: 10-Дек 19:42

Часовой пояс: UTC + 3


Вы не можете начинать темы
Вы не можете отвечать на сообщения
Вы не можете редактировать свои сообщения
Вы не можете удалять свои сообщения
Вы не можете голосовать в опросах
Вы не можете прикреплять файлы к сообщениям
Вы не можете скачивать файлы

!ВНИМАНИЕ!
Сайт не предоставляет электронные версии произведений, а занимается лишь коллекционированием и каталогизацией ссылок, присылаемых и публикуемых на форуме нашими читателями. Если вы являетесь правообладателем какого-либо представленного материала и не желаете, чтобы ссылка на него находилась в нашем каталоге, свяжитесь с нами, и мы незамедлительно удалим ее. Файлы для обмена на трекере предоставлены пользователями сайта, и администрация не несет ответственности за их содержание. Просьба не заливать файлы, защищенные авторскими правами, а также файлы нелегального содержания!