[ Сегодня идет свободное скачивание без начисления Download ]


Статистика раздачи
Нет
 
   
 
Top  
 
 
Без семьи (2 серии)
Жанр: драма, экранизация, музыкальный
Год выпуска: 1984
Продолжительность: 01:19:59 + 01:13:35
Режиссёр: Владимир Бортко
В ролях: Саша Васильев, Сос Саркисян, Ян Хвилер, Елена Соловей, Эугения Плешките, Леонид Дьячков (озвучание - Игорь Ефимов), Юстина Ширвинскайте, Владимир Татосов, Юрий Эллер, Эрнст Романов, Валентин Букин, Анатолий Сливников, Зиновий Гердт, Юрий Горобец, Тамара Уржумова, Юрий Васильев, Валентина Панина, Арсений Архипенко, Регина Варнайте, Валентин Дикуль, Евгений Филатов, Гоша Плюснин, Филипп Школьник, Костя Ширко, Павел Корнаков, Николай Федорцов
Описание: Телефильм по мотивам одноименной повести Гектора Мало о жизни и злоключениях мальчика-подкидыша, воспитывающий в детях доброту и отвагу. Действие происходит в XIX веке во Франции. Мальчик Реми скитается с бродячим цирком по разным городам. Бродячая жизнь многому научила ребенка, а дружба и поддержка тех, с кем свела его судьба, помогли перенести все испытания...
Доп. информация: Вокал - Светлана Степченко, Елена Камбурова, Иосиф Кобзон.
Запись потока *.ts со спутника EUTELSAT, микширование в *.mpg программой VideoReDo.
Качество видео: DVB
Формат видео: MPEG-PS
Видео: MPEG2 Video, 720x576 (4:3), 25,000 кадров/сек, 3348 Кбит/сек
Аудио: MPEG Audio, 48,0 КГц, 192 Кбит/сек, 2 канала

MediaInfo

Общее
Полное имя : E:\Torrent\Без семьи\Без семьи 1.mpg
Формат : MPEG-PS
Размер файла : 2,02 Гбайт
Продолжительность : 1 ч. 19 м.
Режим общего битрейта : Переменный
Общий поток : 3612 Кбит/сек
Видео
Идентификатор : 224 (0xE0)
Формат : MPEG Video
Версия формата : Version 2
Профиль формата : Main@Main
Параметр BVOP формата : Да
Параметр матрицы формата : Выборочная
Продолжительность : 1 ч. 19 м.
Вид битрейта : Переменный
Битрейт : 3348 Кбит/сек
Максимальный битрейт : 5000 Кбит/сек
Ширина : 720 пикселей
Высота : 576 пикселей
Соотношение сторон : 4:3
Частота кадров : 25,000 кадров/сек
Стандарт вещания : PAL
Цветовое пространство : YUV
Субдискретизация насыщенности : 4:2:0
Битовая глубина : 8 бит
Тип развёртки : Чересстрочная
Порядок развёртки : Верхнее поле первое
Метод сжатия : С потерями
Бит/(Пиксели*Кадры) : 0.323
Размер потока : 1,87 Гбайт (93%)
Аудио
Идентификатор : 192 (0xC0)
Формат : MPEG Audio
Версия формата : Version 1
Профиль формата : Layer 2
Продолжительность : 1 ч. 19 м.
Вид битрейта : Постоянный
Битрейт : 192 Кбит/сек
Каналы : 2 канала
Частота : 48,0 КГц
Метод сжатия : С потерями
Размер потока : 110 Мбайт (5%)
Общее
Полное имя : E:\Torrent\Без семьи\Без семьи 2.mpg
Формат : MPEG-PS
Размер файла : 1,89 Гбайт
Продолжительность : 1 ч. 13 м.
Режим общего битрейта : Переменный
Общий поток : 3670 Кбит/сек
Видео
Идентификатор : 224 (0xE0)
Формат : MPEG Video
Версия формата : Version 2
Профиль формата : Main@Main
Параметр BVOP формата : Да
Параметр матрицы формата : Выборочная
Продолжительность : 1 ч. 13 м.
Вид битрейта : Переменный
Битрейт : 3405 Кбит/сек
Максимальный битрейт : 5000 Кбит/сек
Ширина : 720 пикселей
Высота : 576 пикселей
Соотношение сторон : 4:3
Частота кадров : 25,000 кадров/сек
Стандарт вещания : PAL
Цветовое пространство : YUV
Субдискретизация насыщенности : 4:2:0
Битовая глубина : 8 бит
Тип развёртки : Чересстрочная
Порядок развёртки : Верхнее поле первое
Метод сжатия : С потерями
Бит/(Пиксели*Кадры) : 0.328
Размер потока : 1,75 Гбайт (93%)
Аудио
Идентификатор : 192 (0xC0)
Формат : MPEG Audio
Версия формата : Version 1
Профиль формата : Layer 2
Продолжительность : 1 ч. 13 м.
Вид битрейта : Постоянный
Битрейт : 192 Кбит/сек
Каналы : 2 канала
Частота : 48,0 КГц
Метод сжатия : С потерями
Размер потока : 101 Мбайт (5%)

Скриншоты

[Цитировать]



Показать сообщения:    

Текущее время: 07-Дек 19:32

Часовой пояс: UTC + 3


Вы не можете начинать темы
Вы не можете отвечать на сообщения
Вы не можете редактировать свои сообщения
Вы не можете удалять свои сообщения
Вы не можете голосовать в опросах
Вы не можете прикреплять файлы к сообщениям
Вы не можете скачивать файлы

!ВНИМАНИЕ!
Сайт не предоставляет электронные версии произведений, а занимается лишь коллекционированием и каталогизацией ссылок, присылаемых и публикуемых на форуме нашими читателями. Если вы являетесь правообладателем какого-либо представленного материала и не желаете, чтобы ссылка на него находилась в нашем каталоге, свяжитесь с нами, и мы незамедлительно удалим ее. Файлы для обмена на трекере предоставлены пользователями сайта, и администрация не несет ответственности за их содержание. Просьба не заливать файлы, защищенные авторскими правами, а также файлы нелегального содержания!