[ Сегодня идет свободное скачивание без начисления Download ]


Статистика раздачи
Нет
 
   
 
Top  
 
 
Гига, ангел, Снежок и другие
Жанр: сказка, притча, короткометражный
Год выпуска: 1989
Продолжительность: 00:49:43
Режиссёр: Ирина Квирикадзе
В ролях: Гио Бадридзе (озвучание - Маргарита Корабельникова), Вано Сакварелидзе, Марина Гагнидзе, София Миндадзе, Зураб Кипшидзе, Георгий Пипинашвили, Гурам Хурцилава, Шота Мшвениерадзе, Резо Чхиквишвили, Сосо Гогичайшвили, Реваз Таварткиладзе, Владимир Меквабишвили
Описание: Взрослым - не до маленького Гиги. Лишь странный незнакомец и его смешная собачка становятся друзьями мальчика. Вместе им удается найти одну очень важную потерянную вещь...
Доп. информация:
Сценарий: Александр Згуриди
Оператор: Давид Мепаришвили
Художник: Марина Цомая
Запись потока *.ts со спутника EUTELSAT, ремукс в *.mpg программой VideoReDo.
Качество видео: DVB
Формат видео: MPEG-PS
Видео: MPEG Video, 544x576 (4:3, анаморф), 25,000 кадров/сек, 2118 Кбит/сек
Аудио: MPEG Audio, 48,0 КГц, 192 Кбит/сек, 2 канала

MediaInfo

Общее
Полное имя : E:\Torrent\Гмга Ангел Снежок и другие\Гига Ангел Снежок и другие.mpg
Формат : MPEG-PS
Размер файла : 843 Мбайт
Продолжительность : 49 м.
Режим общего битрейта : Переменный
Общий поток : 2371 Кбит/сек
Видео
Идентификатор : 224 (0xE0)
Формат : MPEG Video
Версия формата : Version 2
Профиль формата : Main@Main
Параметр BVOP формата : Нет
Параметр матрицы формата : Выборочная
Параметр GOP формата : Variable
Продолжительность : 49 м.
Вид битрейта : Переменный
Битрейт : 2132 Кбит/сек
Максимальный битрейт : 15,0 Мбит/сек
Ширина : 544 пикселя
Высота : 576 пикселей
Соотношение сторон : 4:3
Частота кадров : 25,000 кадров/сек
Цветовое пространство : YUV
Субдискретизация насыщенности : 4:2:0
Битовая глубина : 8 бит
Тип развёртки : Чересстрочная
Порядок развёртки : Верхнее поле первое
Метод сжатия : С потерями
Бит/(Пиксели*Кадры) : 0.272
Размер потока : 758 Мбайт (90%)
Аудио
Идентификатор : 192 (0xC0)
Формат : MPEG Audio
Версия формата : Version 1
Профиль формата : Layer 2
Продолжительность : 49 м.
Вид битрейта : Постоянный
Битрейт : 192 Кбит/сек
Каналы : 2 канала
Частота : 48,0 КГц
Метод сжатия : С потерями
Размер потока : 68,3 Мбайт (8%)

Скриншоты (с учетом анаморфирования)

[Цитировать]



Показать сообщения:    

Текущее время: 10-Дек 17:47

Часовой пояс: UTC + 3


Вы не можете начинать темы
Вы не можете отвечать на сообщения
Вы не можете редактировать свои сообщения
Вы не можете удалять свои сообщения
Вы не можете голосовать в опросах
Вы не можете прикреплять файлы к сообщениям
Вы не можете скачивать файлы

!ВНИМАНИЕ!
Сайт не предоставляет электронные версии произведений, а занимается лишь коллекционированием и каталогизацией ссылок, присылаемых и публикуемых на форуме нашими читателями. Если вы являетесь правообладателем какого-либо представленного материала и не желаете, чтобы ссылка на него находилась в нашем каталоге, свяжитесь с нами, и мы незамедлительно удалим ее. Файлы для обмена на трекере предоставлены пользователями сайта, и администрация не несет ответственности за их содержание. Просьба не заливать файлы, защищенные авторскими правами, а также файлы нелегального содержания!